2 сезон

iTunes

MVO

1

2 сезон

iTunes

iTunes

1 сезон

RePack

30

Новинка

ВАЖНО

ИГРА 18+

pack

RePack

MK11
pack

Легкие деньги

RePack

jed

RePack

fifa19

RePack

RDR2

RePack

NEED FOR SPEED™ PAYBACK

4 сезон

9 сезон

Бесстыжие 9 сезон

Все сериалы

все сериалы на PB.wtf

RePack

FAR CRY 5

Anonymous, добрый вечер, мы не успеваем собрать деньги на оплату серверов за декабрь и январь, помогите нам пожалуйста в это трудное время. В качестве благодарности мы отключим Вам всю рекламу на сайте (укажите свой ник в строку Ваше имя)!

×
  
Magnet ссылка

Мcтители / The Аvengers (Джосс Уидон) [2012 г., Фантастика, Боевик, BDRip 1080p, DUB, лицензия]OverUnder / Вертикальная стереопара pb.wtf

Мcтители через торрент pb.wtf

Размер: 23.53 GB | Добавлен: 8 лет 4 мес. назад | Торрент скачан:374 раза
Скачать  

29-08-2012 17:53 Мcтители Скачать торрент  

Мcтители / The Аvengers

Год выпуска: 2012
Страна: США
Жанр: Фантастика, Боевик
Продолжительность: 02:22:54
Перевод: Дубляж, Лицензия

Режиссер: Джосс Уидон
Продюссер: Кевин Файги, Виктория Алонсо, Луис Д’Эспозито
Сценарий: Джосс Уидон, Зак Пенн, Стэн Ли

Бюджет: $220 000 000
Премьера в мире: 25 апреля 2012

В ролях: Роберт Дауни мл., Крис Эванс, Марк Руффало, Крис Хемсворт, Скарлетт Йоханссон, Джереми Реннер, Том Хиддлстон, Сэмюэл Л. Джексон, Кларк Грегг, Коби Смолдерс

Роли озвучивали: Владимир Зайцев , Даниил Эльдаров , Алексей Мясников , Иван Жарков , Татьяна Шитова , Илья Исаев , Александр Гаврилин , Владимир Антоник , Андрей Казанцев , Наталья Грачева , Василий Бочкарев , Полина Щербакова , Вячеслав Баранов.

Описание: Локи, сводный брат Тора, возвращается, и в этот раз он не один. Земля на грани порабощения, и только лучшие из лучших могут спасти человечество.
Ник Фьюри, глава международной организации Щ. И. Т., собирает выдающихся поборников справедливости и добра, чтобы отразить атаку. Под предводительством Капитана Америки Железный Человек, Тор, Невероятный Халк, Соколиный глаз и Чёрная Вдова вступают в войну с захватчиком.

ВНИМАНИЕ ! :На встроенных ТВ-плейерах работать не будет!!!

Качество: BDRip
Формат: MKV
Формат 3D: OverUnder / Вертикальная стереопара
Порядок ракурсов: правый ракурс первый
Видео кодек: x264
Аудио кодек: AC3
Видео: AVC / 23,976 fps / 1920х2160 / 21.2 Mbps
Аудио#1: Русский / AC3 / 48 KHz / 5.1 ch / 640 Kbps
Аудио#2: Украинский / AC3 / 48 KHz / 5.1 ch / 640 Kbps
Аудио#3: Английский / AC3 / 48 KHz / 5.1 ch / 640 Kbps


General
Unique ID : 233495813567637452695456324761997906807 (0xAFA9A86DB355E5FC82E6550F45159377)
Complete name : J:\Фильмы\3Д\The Аvengеrs 3D.mkv
Format : Matroska
Format version : Version 2
File size : 23.5 GiB
Duration : 2h 22mn
Overall bit rate : 23.6 Mbps
Encoded date : UTC 2012-08-27 08:21:42
Writing application : mkvmerge v3.4.0 ('Rapunzel') сборка от May 15 2010 09:38:20
Writing library : libebml v0.8.0 + libmatroska v0.9.0

Video
ID : 1
Format : AVC
Format/Info : Advanced Video Codec
Format profile : High@L5.0
Format settings, CABAC : Yes
Format settings, ReFrames : 4 frames
Codec ID : V_MPEG4/ISO/AVC
Duration : 2h 22mn
Bit rate : 21.2 Mbps
Width : 1 920 pixels
Height : 2 160 pixels
Display aspect ratio : 0.889
Frame rate : 23.976 fps
Color space : YUV
Chroma subsampling : 4:2:0
Bit depth : 8 bits
Scan type : Progressive
Bits/(Pixel*Frame) : 0.213
Stream size : 21.1 GiB (90%)
Title : Rip by SeRoGa00
Writing library : x264 core 125 r2208 d9d2288
Encoding settings : cabac=1 / ref=4 / deblock=1:-1:-1 / analyse=0x3:0x133 / me=umh / subme=9 / psy=1 / psy_rd=1.00:0.15 / mixed_ref=1 / me_range=16 / chroma_me=1 / trellis=2 / 8x8dct=1 / cqm=0 / deadzone=21,11 / fast_pskip=1 / chroma_qp_offset=-3 / threads=12 / lookahead_threads=2 / sliced_threads=0 / nr=0 / decimate=1 / interlaced=0 / bluray_compat=0 / constrained_intra=0 / bframes=6 / b_pyramid=2 / b_adapt=2 / b_bias=0 / direct=3 / weightb=1 / open_gop=0 / weightp=2 / keyint=250 / keyint_min=23 / scenecut=40 / intra_refresh=0 / rc_lookahead=60 / rc=crf / mbtree=1 / crf=18.0 / qcomp=0.60 / qpmin=10 / qpmax=69 / qpstep=4 / vbv_maxrate=40000 / vbv_bufsize=40000 / crf_max=0.0 / nal_hrd=none / ip_ratio=1.40 / aq=1:1.00
Language : English
Default : Yes
Forced : No

Audio #1
ID : 2
Format : AC-3
Format/Info : Audio Coding 3
Mode extension : CM (complete main)
Format settings, Endianness : Big
Codec ID : A_AC3
Duration : 2h 22mn
Bit rate mode : Constant
Bit rate : 640 Kbps
Channel(s) : 6 channels
Channel positions : Front: L C R, Side: L R, LFE
Sampling rate : 48.0 KHz
Bit depth : 16 bits
Compression mode : Lossy
Stream size : 654 MiB (3%)
Language : Russian
Default : Yes
Forced : No

Audio #2
ID : 3
Format : AC-3
Format/Info : Audio Coding 3
Mode extension : CM (complete main)
Format settings, Endianness : Big
Codec ID : A_AC3
Duration : 2h 22mn
Bit rate mode : Constant
Bit rate : 640 Kbps
Channel(s) : 6 channels
Channel positions : Front: L C R, Side: L R, LFE
Sampling rate : 48.0 KHz
Bit depth : 16 bits
Compression mode : Lossy
Stream size : 654 MiB (3%)
Language : Ukrainian
Default : No
Forced : No

Audio #3
ID : 4
Format : AC-3
Format/Info : Audio Coding 3
Mode extension : CM (complete main)
Format settings, Endianness : Big
Codec ID : A_AC3
Duration : 2h 22mn
Bit rate mode : Constant
Bit rate : 640 Kbps
Channel(s) : 6 channels
Channel positions : Front: L C R, Side: L R, LFE
Sampling rate : 48.0 KHz
Bit depth : 16 bits
Compression mode : Lossy
Stream size : 654 MiB (3%)
Language : English
Default : No
Forced : No

pb.wtf



Скачать Мcтители через торрент http://i40.fastpic.ru/big/2012/0827/50/f2d8e001157bbec5df447bceaf9a8250.jpg Скачать фильм Мcтители через торрент бесплантно в хорошем качестве Описание: Локи, сводный брат Тора, возвращается, и в этот раз он не один. Земля на грани порабощения, и только лучшие из лучших могут ... 10 10 1
Info! Золотая раздача, скачанное не засчитывается.
Торрент: Зарегистрирован [2012-08-29 17:53] · скачан: 374 раз
Статус: √ проверено
Размер: 23.53 GB
Как cкачать? Как скачать Мcтители через торрент | UTorrent

% Раздел Тема Автор DL S | L
3D Фильмы [ 14.52 GB ] Мcтители в 3Д / The Аvengers 3D [2012 BDRip 1080p 3D] Half OverUnder / Вертикальная анаморфная стереопара anton75 Скачать
1 | 0

28-11-2019 20:33  

Отключить всю рекламу на сайте

29-08-2012 18:14 Мcтители Скачать торрент  

serega768
Жду на раздаче?pb.wtf



30-08-2012 06:57 Мcтители Скачать торрент  

Раздаюpb.wtf



07-10-2014 13:00 Мcтители Скачать торрент  

А можно кого нибудь на раздачу данного чуда? )))pb.wtf



    Дорогой пользователь! Огромная просьба, поблагодарите релизера, оцените раздачу и оставьте свои комментарий, если Вы скачали Мcтители через торрент бесплатно! Внесите свою лепту в развитие PiratBit!
    Комментировать посты могут только пользователи прошедшие не сложную регистрацию
    Показать сообщения:    

    Мcтители через торрент
    Скачать бесплатно Мcтители
    Мcтители скачать торрент
    Мcтители смотреть онлайн
    Cкачать фильм Мcтители бесплатно
    Мcтители скачать торрент в хорошем качестве
    Мcтители смотреть онлайн бесплатно в хорошем качестве


    Вы не можете начинать темы
    Вы не можете отвечать на сообщения
    Вы не можете редактировать свои сообщения
    Вы не можете удалять свои сообщения
    Вы не можете голосовать в опросах
    Вы не можете прикреплять файлы к сообщениям
    Вы можете скачивать файлы