Ссылка на приватное зеркало нашего сайта всего за 1$. Внимание количество ограничено!!!

2 сезон

iTunes

1 сезон

1

iTunes

iTunes

iTunes

1 сезон

RePack

30

ИГРА 18+

pack

ВАЖНО

!!Акция!!

Alien_RageХит недели

RePack

MK11
pack

Забери бонус

RePack

jed

!!Акция!!

Alien_Rage

RePack

fifa19

RePack

Assassins Creed: Odyssey

RePack

NEED FOR SPEED™ PAYBACK

4 сезон

9 сезон

Бесстыжие 9 сезон

Все сериалы

все сериалы на PB.wtf

RePack

FAR CRY 5
  

В лучах славы / Friday Night Lights (Питер Берг, Джош Пэйт) [2004 г., боевик, драма, спорт, BDRip 1080p, MVO (лицензия) + Оригинал] pb.wtf

В лучах славы через торрент pb.wtf

Размер: 15.93 GB | Добавлен: 8 лет 1 мес. назад | Торрент скачан:0 раз
Скачать  

30-08-2012 19:47 В лучах славы Скачать торрент  

В лучах славы / Friday Night Lights

Год выпуска: 2004
Страна: CША
Жанр: боевик, драма, спорт
Продолжительность: 01.57:39
Перевод: MVO (Лицензия) + Оригинал
Субтитры: English
Режиссер: Питер Берг, Джош Пэйт

В ролях: Билли Боб Торнтон, Лукас Блэк, Гаррет Хедлунд, Дерек Люк, Джей Эрнандез, Тим МакГро, Гроувер Колсон

Описание: «В лучах славы» — это хроники сезона 1988 года из жизни компании храбрецов — «Permian High Panthers» — самой успешной футбольной команды в истории Техаса. Молодые участники команды воспринимают каждую игру как шанс вырваться из своего маленького городка, как мимолетную мечту о звездной славе, вершин которой они могут достичь уже к своему 18-летию.

В картине нарисован яркий и выразительный образ Одессы и похожих на нее городишек, разбросанных по всей Америке, где во время осеннего сезона один раз в неделю сам городок и все надежды его обитателей оживают под манящими пятничными ночными огнями.


Качество: BDRip 1080p
Формат: MKV
Видео кодек: Другой MPEG4
Аудио кодек: AC3/DTS
Видео: AVC, 1920x816 (2.35:1), 23.976 fps, 17.5 Mbps
Аудио#1: AC-3, 48.0 KHz, 6 ch, 384 Kbps, CBR (Russian)
Аудио#2: DTS, 48.0 KHz, 6 ch, 1 510 Kbps, CBR (English)

Релиз от:


Общее
Уникальный идентификатор : 216619678204146669937113306215709910780 (0xA2F76EB6FD29C7C4B034E22FC95FA6FC)
Полное имя : D:\В лучах славы.2004.BDRip.(1080p).mkv
Формат : Matroska
Версия формата : Version 2
Размер файла : 15,9 Гбайт
Продолжительность : 1 ч. 57 м.
Общий поток : 19,4 Мбит/сек
Дата кодирования : UTC 2012-08-29 07:43:05
Программа кодирования : mkvmerge v5.7.0 ('The Whirlwind') built on Jul 8 2012 20:08:51
Библиотека кодирования : libebml v1.2.3 + libmatroska v1.3.0

Видео
Идентификатор : 1
Формат : AVC
Формат/Информация : Advanced Video Codec
Профиль формата : High@L4.1
Параметр CABAC формата : Да
Параметр ReFrames формата : 5 кадров
Идентификатор кодека : V_MPEG4/ISO/AVC
Продолжительность : 1 ч. 57 м.
Битрейт : 17,5 Мбит/сек
Ширина : 1920 пикселей
Высота : 816 пикселей
Соотношение сторон : 2,35:1
Частота кадров : 23,976 кадра/сек
Цветовое пространство : YUV
Субдискретизация насыщенности : 4:2:0
Битовая глубина : 8 бит
Тип развёртки : Прогрессивная
Бит/(Пиксели*Кадры) : 0.466
Размер потока : 14,1 Гбайт (88%)
Заголовок : Friday Night Lights 2004 1080p BluRay DTS x264-HDMaNiAcS
Библиотека кодирования : x264 core 124 r2197 69a0443
Настройки программы : cabac=1 / ref=5 / deblock=1:-2:-2 / analyse=0x3:0x113 / me=esa / subme=10 / psy=1 / psy_rd=1.00:0.05 / mixed_ref=1 / me_range=32 / chroma_me=1 / trellis=2 / 8x8dct=1 / cqm=0 / deadzone=21,11 / fast_pskip=0 / chroma_qp_offset=-3 / threads=12 / sliced_threads=0 / nr=0 / decimate=0 / interlaced=0 / bluray_compat=0 / constrained_intra=0 / bframes=7 / b_pyramid=2 / b_adapt=2 / b_bias=0 / direct=3 / weightb=1 / open_gop=0 / weightp=2 / keyint=250 / keyint_min=23 / scenecut=40 / intra_refresh=0 / rc_lookahead=120 / rc=2pass / mbtree=1 / bitrate=17500 / ratetol=1.0 / qcomp=0.70 / qpmin=0 / qpmax=69 / qpstep=4 / cplxblur=20.0 / qblur=0.5 / ip_ratio=1.40 / aq=2:0.60
Язык : English
Default : Да
Forced : Нет

Аудио #1
Идентификатор : 2
Формат : AC-3
Формат/Информация : Audio Coding 3
Расширение режима : CM (complete main)
Параметр Endianness формата : Big
Идентификатор кодека : A_AC3
Продолжительность : 1 ч. 57 м.
Вид битрейта : Постоянный
Битрейт : 384 Кбит/сек
Каналы : 6 каналов
Расположение каналов : Front: L C R, Side: L R, LFE
Частота : 48,0 КГц
Битовая глубина : 16 бит
Метод сжатия : С потерями
Размер потока : 323 Мбайт (2%)
Заголовок : Многоголосый закадровый
Язык : Russian
Default : Да
Forced : Нет

Аудио #2
Идентификатор : 3
Формат : DTS
Формат/Информация : Digital Theater Systems
Идентификатор кодека : A_DTS
Продолжительность : 1 ч. 57 м.
Вид битрейта : Постоянный
Битрейт : 1510 Кбит/сек
Каналы : 6 каналов
Расположение каналов : Front: L C R, Side: L R, LFE
Частота : 48,0 КГц
Битовая глубина : 24 бит
Метод сжатия : С потерями
Размер потока : 1,24 Гбайт (8%)
Язык : English
Default : Нет
Forced : Нет

Текст
Идентификатор : 4
Формат : UTF-8
Идентификатор кодека : S_TEXT/UTF8
Идентификатор кодека/Информация : UTF-8 Plain Text
Заголовок : SDH
Язык : English
Default : Нет
Forced : Нет

Меню
00:00:00.000 : en:Football Time in Texas
00:02:59.388 : en:Pre-Season
00:07:21.900 : en:The Legend's Son
00:11:36.863 : en:The Next State Champion
00:14:27.784 : en:Party Time
00:17:53.656 : en:"Little Fumble"
00:20:38.195 : en:Smiling Mike
00:22:29.390 : en:Football County
00:26:57.449 : en:Marshall Game
00:30:34.875 : en:Boobie's Knee
00:34:47.836 : en:Losers
00:39:21.901 : en:Get the Job Done
00:43:15.968 : en:Mojo Working
00:47:07.033 : en:MRI
00:50:05.377 : en:Midland Lee
00:53:40.217 : en:The Last of Boobie Miles
00:56:21.086 : en:End of the Game
00:58:54.614 : en:Cursed
01:03:43.570 : en:The Coin Toss
01:07:04.562 : en:The Only Fact of Life
01:09:22.450 : en:Boobie Says Goodbye
01:12:54.120 : en:Playoff Time
01:16:09.440 : en:Beat 'em or...
01:18:49.558 : en:Going to State
01:20:37.624 : en:The Dallas Carter Game
01:22:27.526 : en:First Half
01:27:45.552 : en:Half-Time
01:32:14.362 : en:Second Half
01:35:02.113 : en:The Mojo Comeback
01:41:22.368 : en:The Last Yard
01:47:20.142 : en:Epilogue
01:51:17.004 : en:Football Time in Texas

pb.wtf



Скачать В лучах славы через торрент http://i43.fastpic.ru/big/2012/0725/61/91338c4ffef190671e40ed20208fc561.jpg Скачать фильм В лучах славы через торрент бесплантно в хорошем качестве Описание: «В лучах славы» — это хроники сезона 1988 года из жизни компании храбрецов — «Permian High Panthers» — самой успешной футбольной ... 5 10 1
Info! Золотая раздача, скачанное не засчитывается.
Торрент: Зарегистрирован [2012-08-30 19:47] · скачан: 0 раз
Статус: % проверяется
Размер: 15.93 GB
Как cкачать? Как скачать В лучах славы через торрент | qTorrent



Последний раз редактировалось: AlexKa (2012-08-30 20:56), всего редактировалось 1 раз

28-11-2019 20:33  

Отключить всю рекламу на сайте

30-08-2012 19:59 В лучах славы Скачать торрент  

перезалей постер на другой хостинг - не отображаетсяpb.wtf



30-08-2012 20:05 В лучах славы Скачать торрент  

все ок)pb.wtf



30-08-2012 20:19 В лучах славы Скачать торрент  

AlexKa писал(а):

все ок)

pb.wtf



30-08-2012 20:33 В лучах славы Скачать торрент  

Незнаю у каго как у меня все отабражается
pb.wtf



30-08-2012 20:35 В лучах славы Скачать торрент  

постер ноль pb.wtf



30-08-2012 20:48 В лучах славы Скачать торрент  

AlexKa
Перезалей постер!!!! У меня он отображается, но у других нет, потому что он размещен на локальном (украинском) трекере... абсолютно все графические элементы должны размещаться на открытых фотохостингах!!!pb.wtf



30-08-2012 20:50 В лучах славы Скачать торрент  

тут точно дубляж ?pb.wtf



31-08-2012 08:54 В лучах славы Скачать торрент  

DjStax писал(а):

тут точно дубляж ?

Где ты видишь, что написано, что этот фильм в дубляже? MVO - профессиональный многоголосый перевод. Оригинал - язык страны снявшей той или иной фильм.pb.wtf



    Дорогой пользователь! Огромная просьба, поблагодарите релизера, оцените раздачу и оставьте свои комментарий, если Вы скачали В лучах славы через торрент бесплатно! Внесите свою лепту в развитие PiratBit!
    Комментировать посты могут только пользователи прошедшие не сложную регистрацию
    Показать сообщения:    

    В лучах славы через торрент
    Скачать бесплатно В лучах славы
    В лучах славы скачать торрент
    В лучах славы смотреть онлайн
    Cкачать фильм В лучах славы бесплатно
    В лучах славы скачать торрент в хорошем качестве
    В лучах славы смотреть онлайн бесплатно в хорошем качестве


    Вы не можете начинать темы
    Вы не можете отвечать на сообщения
    Вы не можете редактировать свои сообщения
    Вы не можете удалять свои сообщения
    Вы не можете голосовать в опросах
    Вы не можете прикреплять файлы к сообщениям
    Вы можете скачивать файлы