Ссылка на приватное зеркало всего за 1$. Внимание количество ограничено!!!

iTunes

iTunes

iTunes

1

iTunes

iTunes

iTunes

iTunes

iTunes

30
pack

$ от Little Big

ВАЖНО

!!Акция!!

Alien_RageХит недели

RePack

Resident Evil 21

ИГРА 18+

pack

RePack

jed

!!Акция!!

Alien_Rage

RePack

fifa19

RePack

Assassins Creed: Odyssey

RePack

NEED FOR SPEED™ PAYBACK

4 сезон

9 сезон

Бесстыжие 9 сезон

Все сериалы

все сериалы на PB.wtf

RePack

FAR CRY 5
  

Плохая компания / Bad Company (Джоэл Шумахер) [2001 г., Боевик, Комедия, Приключения, HDTVRip (1080p), DUB, лицензия] pb.wtf

Плохая компания через торрент pb.wtf

Размер: 8.67 GB | Добавлен: 7 лет 10 мес. назад | Торрент скачан:77 раз
Скачать  

31-08-2012 07:40 Плохая компания Скачать торрент  

Плохая компания / Bad Company

Год выпуска: 2001
Страна: США, Touchstone Pictures
Жанр: Боевик, Комедия, Приключения
Продолжительность: 01:51:51
Перевод: Дубляж, Лицензия

Режиссер: Джоэл Шумахер
В ролях: Энтони Хопкинс, Крис Рок, Петер Стормаре, Гэбриел Махт, Керри Вашингтон

Описание: Два опытных высококлассных агента ЦРУ Гейлорд Оакес и Кевин Поп выдают себя за покупателей русской бомбы. Но их секретная операция проходит не так успешно, как ожидалось. Кевин Поп убит. Чтобы смерть Кевина осталась незамеченной и операция не сорвалась, ЦРУ вербует брата-близнеца Кевина, Джейка Хейеса (Крис Рок). Всего за девять дней агент Оакес должен сделать из Джейка копию его погибшего брата. Но все осложняется тем, что братья не знали друг друга, у них абсолютно разные характеры, да и росли они в совершенно разных условиях. Кевин вырос в хорошей семье, окончил колледж, а детство Джейка прошло в бедных приемных семьях. Теперь всего за девять дней Джейк должен стать настоящим шпионом, таким же, каким был его погибший брат. Но что из этого получится?
Качество: HDTVRip (1080p)
Формат: MKV
Видео кодек: AVC
Аудио кодек: AC-3
Видео: AVC, 1920x1080 (16:9), 25.000 fps, 10.4 Mbps
Аудио#1: AC-3, 48.0 KHz, 6 ch, 448 Kbps, CBR (Russian)|Дублированный|


Общее
Уникальный идентификатор : 216658604191165133259030101516132232142 (0xA2FEEDEA04C3F1AC8A105D37408F2BCE)
Полное имя : D:DownloadsKompaniya.mkv
Формат : Matroska
Версия формата : Version 2
Размер файла : 8,67 Гбайт
Продолжительность : 1 ч. 51 м.
Режим общего битрейта : Переменный
Общий поток : 11,1 Мбит/сек
Дата кодирования : UTC 2012-08-30 17:01:18
Программа кодирования : mkvmerge v5.6.0 ('Kenya Kane') built on Jun 29 2012 15:01:44
Библиотека кодирования : libebml v1.2.3 + libmatroska v1.3.0

Видео
Идентификатор : 1
Формат : AVC
Формат/Информация : Advanced Video Codec
Профиль формата : High@L4.0
Параметр CABAC формата : Да
Параметр ReFrames формата : 2 кадра
Режим смешивания : Header stripping
Идентификатор кодека : V_MPEG4/ISO/AVC
Продолжительность : 1 ч. 51 м.
Вид битрейта : Переменный
Битрейт : 10,4 Мбит/сек
Максимальный битрейт : 12,5 Мбит/сек
Ширина : 1920 пикселей
Высота : 1080 пикселей
Соотношение сторон : 16:9
Частота кадров : 25,000 кадров/сек
Цветовое пространство : YUV
Субдискретизация насыщенности : 4:2:0
Битовая глубина : 8 бит
Тип развёртки : Прогрессивная
Бит/(Пиксели*Кадры) : 0.201
Размер потока : 8,14 Гбайт (94%)
Default : Да
Forced : Нет

Аудио
Идентификатор : 2
Формат : AC-3
Формат/Информация : Audio Coding 3
Расширение режима : CM (complete main)
Параметр Endianness формата : Big
Режим смешивания : Header stripping
Идентификатор кодека : A_AC3
Продолжительность : 1 ч. 51 м.
Вид битрейта : Постоянный
Битрейт : 448 Кбит/сек
Каналы : 6 каналов
Расположение каналов : Front: L C R, Side: L R, LFE
Частота : 48,0 КГц
Битовая глубина : 16 бит
Метод сжатия : С потерями
Задержка видео : -40 мс.
Размер потока : 358 Мбайт (4%)
Язык : Russian
Default : Да
Forced : Нет

pb.wtf



Скачать Плохая компания через торрент http://img266.imageshack.us/img266/9800/35740863.png Скачать фильм Плохая компания через торрент бесплантно в хорошем качестве Описание: Два опытных высококлассных агента ЦРУ Гейлорд Оакес и Кевин Поп выдают себя за покупателей русской бомбы. Но их секретная ... 5 10 1
Info! Золотая раздача, скачанное не засчитывается.
Торрент: Зарегистрирован [2012-08-31 07:40] · скачан: 77 раз
Статус: √ проверено
Размер: 8.67 GB
Как cкачать? Как скачать Плохая компания через торрент | qTorrent

28-11-2019 20:33  

Отключить всю рекламу на сайте

    Дорогой пользователь! Огромная просьба, поблагодарите релизера, оцените раздачу и оставьте свои комментарий, если Вы скачали Плохая компания через торрент бесплатно! Внесите свою лепту в развитие PiratBit!
    Комментировать посты могут только пользователи прошедшие не сложную регистрацию
    Показать сообщения:    

    Плохая компания через торрент
    Скачать бесплатно Плохая компания
    Плохая компания скачать торрент
    Плохая компания смотреть онлайн
    Cкачать фильм Плохая компания бесплатно
    Плохая компания скачать торрент в хорошем качестве
    Плохая компания смотреть онлайн бесплатно в хорошем качестве


    Вы не можете начинать темы
    Вы не можете отвечать на сообщения
    Вы не можете редактировать свои сообщения
    Вы не можете удалять свои сообщения
    Вы не можете голосовать в опросах
    Вы не можете прикреплять файлы к сообщениям
    Вы можете скачивать файлы