Ссылка на приватное зеркало нашего сайта всего за 1$. Внимание количество ограничено!!!

2 сезон

iTunes

1 сезон

1

iTunes

iTunes

iTunes

1 сезон

RePack

30

ИГРА 18+

pack

ВАЖНО

!!Акция!!

Alien_RageХит недели

RePack

MK11
pack

Забери бонус

RePack

jed

!!Акция!!

Alien_Rage

RePack

fifa19

RePack

Assassins Creed: Odyssey

RePack

NEED FOR SPEED™ PAYBACK

4 сезон

9 сезон

Бесстыжие 9 сезон

Все сериалы

все сериалы на PB.wtf

RePack

FAR CRY 5
  

Пока не сыграл в ящик / The Bucket List (Роб Райнер) [2007 г., драма, комедия, приключения, BDRip 720p] DUB + AVO (Ю. Немахов) + Original + Sub (Rus, Ukr, Eng) pb.wtf

Пока не сыграл в ящик через торрент pb.wtf

Размер: 6.03 GB | Добавлен: 8 лет 1 мес. назад | Торрент скачан:127 раз
Скачать  

31-08-2012 13:11 Пока не сыграл в ящик Скачать торрент  

Пока не сыграл в ящик / The Bucket List
Год выпуска: 2007
Страна: США, Storyline Entertainment, Two Ton Films, Warner Bros. Pictures, Zadan / Meron Productions
Жанр: драма, комедия, приключения
Продолжительность: 01:37:04
Перевод: Дубляж + Авторский (Юрий Немахов)

Режиссер: Роб Райнер
В ролях: Джек Николсон, Морган Фриман, Шон Хейс, Беверли Тодд, Роб Морроу, Альфонсо Фриман, Роуэна Кинг, Эннтон Берри мл., Верда Бриджес, Дестини Браунридж, Брайан Коуплэнд, Йен Энтони Дэйл, Дженнифер Дифранческо, Анджела Гарднер, Ноэль Гульеми, Джонатан Эрнандез, Хью Б. Холуб, Андреа Джонсон, Доун Льюис, Джордан Лунд, Ричард МакГонагл, Джонатан Мангум, Карен Маруяма, Эмбер Мид, Никки Новак, Джон О’Брайэн, Серена Ридер, Кристофер Степлтон, Тейлор Энн Томпсон, Алекс Требек, Рой Вонгтама, МаШае Олдермен, Брент Баттлс, Лоурен Кон, Фрэнк Махарадж, Вин Скалли, Джордж Ф. Уотсон

Описание: Именно так решили два больных раком соседа по больничной палате, когда услышали свой приговор. Один из них вспыльчивый миллиардер, а второй эрудированный автомеханик. Они составляют список дел, которые необходимо сделать прежде, чем они сыграют в ящик, и отправляются в кругосветное путешествие, путешествие всей своей жизни. Прыжки с парашютом? Посмотрим. Гонки на раритетных автомобилях? Сделано. Посмотреть на пирамиды? Отлично. Открыть радость жизни прежде, чем станет слишком поздно? Точно!
Качество: BDRip 720p
Формат: MKV
Видео кодек: AVC
Аудио кодек: AC3
Видео: MPEG-4 AVC, 7051 Кбит/с, 1280x720, 23.976 кадр/с
Аудио#1:AC-3, 48.0 KHz, 6 ch, 384 Kbps, CBR (Russian) Dub
Аудио#2: AC-3, 48.0 KHz, 6 ch, 640 Kbps, CBR (Russian) AVO Юрий Немахов
Аудио#3: AC-3, 48.0 KHz, 6 ch, 640 Kbps, CBR (English)

Субтитры: Russian, Russian, Ukrainian, English
Релиз от:


Общее
Уникальный идентификатор : 173396222195766685306183290637929572898 (0x8272E5CCDA232E1E85000AE7F21A6A22)
Полное имя : D:\The.Bucket.List.2007.720p.BluRay.2xRus.Eng.HDCLUB.mkv
Формат : Matroska
Версия формата : Version 2
Размер файла : 6,03 Гбайт
Продолжительность : 1 ч. 37 м.
Общий поток : 8892 Кбит/сек
Название фильма : The Bucket List (2007) - Release for HDCLUB
Дата кодирования : UTC 2010-10-30 09:47:57
Программа кодирования : mkvmerge v4.0.0 ('The Stars were mine') сборка от Jun 6 2010 16:18:42
Библиотека кодирования : libebml v1.0.0 + libmatroska v1.0.0

Видео
Идентификатор : 1
Формат : AVC
Формат/Информация : Advanced Video Codec
Профиль формата : High@L4.1
Параметр CABAC формата : Да
Параметр ReFrames формата : 6 кадров
Идентификатор кодека : V_MPEG4/ISO/AVC
Продолжительность : 1 ч. 37 м.
Битрейт : 7051 Кбит/сек
Ширина : 1280 пикселей
Высота : 720 пикселей
Соотношение сторон : 16:9
Частота кадров : 23,976 кадра/сек
Цветовое пространство : YUV
Субдискретизация насыщенности : 4:2:0
Битовая глубина : 8 бит
Тип развёртки : Прогрессивная
Бит/(Пиксели*Кадры) : 0.319
Размер потока : 4,78 Гбайт (79%)
Заголовок : The Bucket List (2007) - Release for HDCLUB
Библиотека кодирования : x264 core 107 r1745+311 2317302
Настройки программы : cabac=1 / ref=6 / deblock=1:-3:-3 / analyse=0x3:0x113 / me=esa / subme=9 / psy=1 / fade_compensate=0.00 / psy_rd=1.06:0.00 / mixed_ref=1 / me_range=64 / chroma_me=1 / trellis=2 / 8x8dct=1 / cqm=0 / deadzone=6,6 / fast_pskip=0 / chroma_qp_offset=-2 / threads=6 / sliced_threads=0 / nr=0 / decimate=1 / interlaced=0 / constrained_intra=0 / fgo=0 / bframes=8 / b_pyramid=2 / b_adapt=2 / b_bias=0 / direct=1 / weightb=1 / open_gop=0 / weightp=2 / keyint=250 / keyint_min=23 / scenecut=40 / intra_refresh=0 / rc=crf / mbtree=0 / crf=16.4 / qcomp=0.60 / qpmin=10 / qpmax=51 / qpstep=4 / ip_ratio=1.40 / pb_ratio=1.30 / aq=1:0.70
Язык : English
Default : Да
Forced : Нет

Аудио #1
Идентификатор : 2
Формат : AC-3
Формат/Информация : Audio Coding 3
Расширение режима : CM (complete main)
Параметр Endianness формата : Big
Идентификатор кодека : A_AC3
Продолжительность : 1 ч. 37 м.
Вид битрейта : Постоянный
Битрейт : 384 Кбит/сек
Каналы : 6 каналов
Расположение каналов : Front: L C R, Side: L R, LFE
Частота : 48,0 КГц
Битовая глубина : 16 бит
Метод сжатия : С потерями
Размер потока : 267 Мбайт (4%)
Заголовок : дубляж [ac3 6ch 384 kbps]
Язык : Russian
Default : Да
Forced : Нет

Аудио #2
Идентификатор : 3
Формат : AC-3
Формат/Информация : Audio Coding 3
Расширение режима : CM (complete main)
Параметр Endianness формата : Big
Идентификатор кодека : A_AC3
Продолжительность : 1 ч. 37 м.
Вид битрейта : Постоянный
Битрейт : 640 Кбит/сек
Каналы : 6 каналов
Расположение каналов : Front: L C R, Side: L R, LFE
Частота : 48,0 КГц
Битовая глубина : 16 бит
Метод сжатия : С потерями
Размер потока : 444 Мбайт (7%)
Заголовок : одноголосый (Ю.Немахов) [ac3 6ch 640 kbps]
Язык : Russian
Default : Нет
Forced : Нет

Аудио #3
Идентификатор : 4
Формат : AC-3
Формат/Информация : Audio Coding 3
Расширение режима : CM (complete main)
Параметр Endianness формата : Big
Идентификатор кодека : A_AC3
Продолжительность : 1 ч. 37 м.
Вид битрейта : Постоянный
Битрейт : 640 Кбит/сек
Каналы : 6 каналов
Расположение каналов : Front: L C R, Side: L R, LFE
Частота : 48,0 КГц
Битовая глубина : 16 бит
Метод сжатия : С потерями
Размер потока : 444 Мбайт (7%)
Заголовок : original [ac3 6ch 640 kbps]
Язык : English
Default : Нет
Forced : Нет

Текст #1
Идентификатор : 5
Формат : UTF-8
Идентификатор кодека : S_TEXT/UTF8
Идентификатор кодека/Информация : UTF-8 Plain Text
Язык : Russian
Default : Нет
Forced : Нет

Текст #2
Идентификатор : 6
Формат : ASS
Идентификатор кодека : S_TEXT/ASS
Идентификатор кодека/Информация : Advanced Sub Station Alpha
Метод сжатия : Без потерь
Заголовок : col
Язык : Russian
Default : Нет
Forced : Нет

Текст #3
Идентификатор : 7
Формат : UTF-8
Идентификатор кодека : S_TEXT/UTF8
Идентификатор кодека/Информация : UTF-8 Plain Text
Язык : Ukrainian
Default : Нет
Forced : Нет

Текст #4
Идентификатор : 8
Формат : UTF-8
Идентификатор кодека : S_TEXT/UTF8
Идентификатор кодека/Информация : UTF-8 Plain Text
Заголовок : sdh
Язык : English
Default : Нет
Forced : Нет

Меню
00:00:00.000 : en:00:00:00.000
00:01:30.090 : en:00:01:30.090
00:06:09.703 : en:00:06:09.703
00:12:38.424 : en:00:12:38.424
00:17:06.359 : en:00:17:06.359
00:23:10.723 : en:00:23:10.723
00:29:30.936 : en:00:29:30.936
00:35:30.128 : en:00:35:30.128
00:38:45.490 : en:00:38:45.490
00:42:03.688 : en:00:42:03.688
00:45:58.756 : en:00:45:58.756
00:49:39.476 : en:00:49:39.476
00:53:04.681 : en:00:53:04.681
00:57:50.133 : en:00:57:50.133
01:03:42.652 : en:01:03:42.652
01:06:43.666 : en:01:06:43.666
01:09:18.988 : en:01:09:18.988
01:14:11.113 : en:01:14:11.113
01:16:35.925 : en:01:16:35.925
01:20:54.349 : en:01:20:54.349
01:23:23.665 : en:01:23:23.665
01:26:55.710 : en:01:26:55.710
01:32:21.536 : en:01:32:21.536

pb.wtf



Скачать Пока не сыграл в ящик через торрент http://ecx.images-amazon.com/images/I/51INsCNsuQL._.jpg Скачать фильм Пока не сыграл в ящик через торрент бесплантно в хорошем качестве Описание: Именно так решили два больных раком соседа по больничной палате, когда услышали свой приговор. Один из них вспыльчивый ... 10 10 2
Info! Золотая раздача, скачанное не засчитывается.
Торрент: Зарегистрирован [2012-09-01 08:45] · скачан: 127 раз
Статус: √ проверено
Размер: 6.03 GB
Как cкачать? Как скачать Пока не сыграл в ящик через торрент | qTorrent

% Раздел Тема Автор DL S | L
Фильмы [HD 720p, 1080p] (Хороший звук DUB, MVO) [ 8.25 GB ] Пока не сыграл в ящик / The Bucket List [2007 BDRip 1080p от _denis_100 / NNNB ] DUB 2xAVO _denis_100 Скачать
1 | 0
Фильмы [HD 720p, 1080p] (Хороший звук DUB, MVO) [ 4.68 GB ] Пока не сыграл в ящик / The Bucket List [2007 BDRip 720p от _denis_100 / NNNB ] DUB 2xAVO _denis_100 Скачать
1 | 0
Фильмы [HD 720p, 1080p] (Хороший звук DUB, MVO) [ 11.19 GB ] Пока не сыграл в ящик / The Bucket List [2007 BDRip 1080p DUB ] от R.G. HD-Films Seedtank Скачать
1 | 0
Фильмы 2006-2008 [ 1.46 GB ] Пока не сыграл в ящик / The Bucket List [2007 HDRip] Axwell Скачать
1 | 0
Фильмы 2006-2008 [ 1.46 GB ] Пока не сыграл в ящик / The Bucket List [2007 HDRip-AVC] DUB / от R.G. nICE Films Demonessa Скачать
1 | 0


Последний раз редактировалось: AlexKa (2012-09-01 11:56), всего редактировалось 3 раз(а)
  Отказ исправлять раздачу, Удаление Торрент файла с раздачи, выдал Demonessa

28-11-2019 20:33  

Отключить всю рекламу на сайте

31-08-2012 13:26 Пока не сыграл в ящик Скачать торрент  

Несмотря на актёров высочайшего уровня присутствующих в фильме, фильм очень скучный и занудный, до конца даже не смог досмотретьpb.wtf



31-08-2012 13:35 Пока не сыграл в ящик Скачать торрент  

Перевод: Дубляж + Оригинал
допиши AVO и чей он
Аудио#2: AC-3, 48.0 KHz, 6 ch, 640 Kbps, CBR (Russian) AVO
допиши чей переводpb.wtf



31-08-2012 15:17 Пока не сыграл в ящик Скачать торрент  

Описание похоже на "Достучаться до небес".pb.wtf



31-08-2012 15:25 Пока не сыграл в ящик Скачать торрент  

malena_114
очень похожи эти два фильма, если понравился тот то и этот тоже понравитсяpb.wtf



31-08-2012 16:35 Пока не сыграл в ящик Скачать торрент  

Фильм бомба, спасибо автору, заберем!pb.wtf



31-08-2012 18:57 Пока не сыграл в ящик Скачать торрент  

HOHMACH писал(а):

Несмотря на актёров высочайшего уровня присутствующих в фильме, фильм очень скучный и занудный, до конца даже не смог досмотреть

САМ ТЫ СКУШНЫЙ pb.wtf



31-08-2012 21:37 Пока не сыграл в ящик Скачать торрент  

Перевод: Дубляж + Оригинал
дописываем все переводы в раздаче
Видео:
где тех данные?
Аудио#2: AC-3, 48.0 KHz, 6 ch, 640 Kbps, CBR (Russian) AVO Каралев
что за авторская озвучка такая от Каралёв - исправляем


после исправления всех ошибок пишем в ЛС со ссылкой на раздачуpb.wtf



    Дорогой пользователь! Огромная просьба, поблагодарите релизера, оцените раздачу и оставьте свои комментарий, если Вы скачали Пока не сыграл в ящик через торрент бесплатно! Внесите свою лепту в развитие PiratBit!
    Комментировать посты могут только пользователи прошедшие не сложную регистрацию
    Показать сообщения:    

    Пока не сыграл в ящик через торрент
    Скачать бесплатно Пока не сыграл в ящик
    Пока не сыграл в ящик скачать торрент
    Пока не сыграл в ящик смотреть онлайн
    Cкачать фильм Пока не сыграл в ящик бесплатно
    Пока не сыграл в ящик скачать торрент в хорошем качестве
    Пока не сыграл в ящик смотреть онлайн бесплатно в хорошем качестве


    Вы не можете начинать темы
    Вы не можете отвечать на сообщения
    Вы не можете редактировать свои сообщения
    Вы не можете удалять свои сообщения
    Вы не можете голосовать в опросах
    Вы не можете прикреплять файлы к сообщениям
    Вы можете скачивать файлы