Всегда рабочее зеркало без VPN и Proxy просто перед .vidak.icu напиши любое слово или цифру, Пример http://mqq6.vidak.icu

MVO

MVO

1 сезон

1

1 сезон

iTunes

1 сезон

13

1 сезон

Deluxe

pack

Рекомендуем

Repack

30

ВАЖНО

RePack

MK11

RePack

jed

RePack

fifa19

RePack

RDR2

RePack

NEED FOR SPEED™ PAYBACK

Кинопоиск HD

6 сезон

 Острые козырьки 6 сезон

Все сериалы

все сериалы на PB.wtf

RePack

FAR CRY 5
  
Magnet ссылка

Подземелье / Underground (Рафаэль Айзенман) [2011 г., ужасы, HDRip, Профессиональный (многоголосый)] pb.wtf

Подземелье через торрент pb.wtf

Размер: 1.37 GB | Добавлен: 9 лет назад | Торрент скачан:343 раза
Смотреть онлайн Подземелье | Скачать    Ребята, помогите собрать деньги на оплату серверов!!!

01-09-2012 05:52 Подземелье Скачать торрент  

Подземелье / Underground

Год выпуска: 2011
Страна: США
Жанр: ужасы
Продолжительность: 01:26:41
Перевод: Профессиональный (многоголосый)

Режиссер: Рафаэль Айзенман
Продюссер: Энтони Гудас, Ван Берроуз, Роберт Фолк
Сценарий: Чарльз Моррис мл.

В ролях: Росс Томас, София Пернас, Кристин Евангелиста, Адриан Р’Манте, Инбар Лави, Джефф Д’Агостино, Меган Хенсли, Дженна Хьюз, Adam Meirick, Кимберли Роупер

Описание: На одной из секретных баз военные учёные экспериментировали с биологическим оружием. Что-то, как водится, пошло не так, и на свободу вырвалась стая озверелых мутантов, которую не смог одолеть даже специально вызванный отряд спецназа.Прошло два года, об инциденте забыли, а на месте базы организовали масштабную дискотеку. Сцепившись на танцполе с бандитами, группа молодёжи пустилась от них наутёк и оказалась загнанной в подземные туннели, где всё ещё обитали злобные твари.

Качество: HDRip
Формат: AVI
Видео кодек: XviD
Аудио кодек: AC3
Видео: 720x304 , 23.976 fps, XviD MPEG-4 ~2057 kbps avg, 0.39 bit/pixel
Аудио:48 kHz, AC3 Dolby Digital, 2/0 (L,R) ch, ~192 kbps
Общее
Полное имя : D:\Торенты\Podzemelje.2011.P.HDRip.avi
Формат : AVI
Формат/Информация : Audio Video Interleave
Размер файла : 1,37 Гбайт
Продолжительность : 1 ч. 26 м.
Общий поток : 2259 Кбит/сек
Программа кодирования : VirtualDubMod 1.5.10.2 (build 2540/release)
Библиотека кодирования : VirtualDubMod build 2540/release

Видео
Идентификатор : 0
Формат : MPEG-4 Visual
Профиль формата : Advanced [email protected]
Параметр BVOP формата : 2
Параметр QPel формата : Нет
Параметр GMC формата : Без точки перехода
Параметр матрицы формата : Default (H.263)
Режим смешивания : Сжатый битовый поток
Идентификатор кодека : XVID
Идентификатор кодека/Подсказка : XviD
Продолжительность : 1 ч. 26 м.
Битрейт : 2057 Кбит/сек
Ширина : 720 пикс.
Высота : 304 пикс.
Соотношение сторон : 2,35:1
Частота кадров : 23,976 кадр/сек
Цветовое пространство : YUV
Подвыборка цветности : 4:2:0
Битовая глубина : 8 бит
Тип развёртки : Чересстрочная
Порядок развёртки : Нижнее поле первое
Метод сжатия : С потерями
Бит/(Пиксели*Кадры) : 0.392
Размер потока : 1,25 Гбайт (91%)
Библиотека кодирования : XviD 58

Аудио
Идентификатор : 1
Формат : AC-3
Формат/Информация : Audio Coding 3
Расширение режима : CM (complete main)
Идентификатор кодека : 2000
Продолжительность : 1 ч. 26 м.
Вид битрейта : Постоянный
Битрейт : 192 Кбит/сек
Каналы : 2 канала
Расположение каналов : Front: L R
Частота : 48,0 КГц
Битовая глубина : 16 бит
Метод сжатия : С потерями
Размер потока : 119 Мбайт (9%)
Выравнивание : Разделение по промежуткам
Продолжительность промежутка : 42 мс. (1,00 видеокадр)
Время предзагрузки промежутка : 500 ms




pb.wtf



Скачать Подземелье через торрент https://pic1.kartinco.top/images/2011/kxo7z2x92a.png Скачать, смотреть онлайн Подземелье бесплантно в хорошем качестве Описание: На одной из секретных баз военные учёные экспериментировали с биологическим оружием. Что-то, как водится, пошло не так, и на ... 10 10 2
Info! Золотая раздача, скачанное не засчитывается.
Торрент: Зарегистрирован [2012-09-01 05:52] · скачан: 343 раз
Статус: √ проверено
Размер: 1.37 GB
Как cкачать? Как скачать Подземелье через торрент | UTorrent

% Раздел Тема Автор DL S | L
Фильмы 2011 [ 747 MB ] Подземелье / Underground [2011 HDRip ] Ворон Скачать
1 | 0
T Фильмы 2011 [ 1.45 GB ] Подземелье / Underground [2011 г HDRip-AVC VO |R1shpil|] Mr. Freeman Скачать
1 | 0
Научно-популярные фильмы [ 1.07 GB ] Подземелья Рейха / The Reich Underground / 2 серии из 2 [2004 документальный TVRip] markfiter Скачать
1 | 0
T Фильмы [HD 720p, 1080p] (Хороший звук DUB, MVO) [ 3.71 GB ] Подземелье / Underground [2011 BDRip ] VO + Original Eng boombee Скачать
1 | 0

28-11-2019 20:33  

Отключить вcю реклaмy на сайте

    Дорогой пользователь! Огромная просьба, поблагодарите релизера, оцените раздачу и оставьте свои комментарий, если Вы скачали Подземелье через торрент бесплатно!
    Комментировать посты могут только пользователи прошедшие не сложную регистрацию
    Показать сообщения:    

    Подземелье через торрент
    Скачать бесплатно Подземелье
    Подземелье скачать торрент
    Подземелье смотреть онлайн
    Cкачать фильм Подземелье бесплатно
    Подземелье скачать торрент в хорошем качестве
    Подземелье смотреть онлайн бесплатно в хорошем качестве


    Вы не можете начинать темы
    Вы не можете отвечать на сообщения
    Вы не можете редактировать свои сообщения
    Вы не можете удалять свои сообщения
    Вы не можете голосовать в опросах
    Вы не можете прикреплять файлы к сообщениям
    Вы можете скачивать файлы