Мега распродажа FORZA HORIZON 4 ULTIMATE+ВСЕ DLC+ОНЛАЙН всего за 499р. 349 руб. (супер цена). Внимание количество ограничено!!!

iTunes

1+1

iTunes

мы

iTunes

1

1 сезон

Чернобыль

1 сезон

Ральф против интернета

Лицензия

ПШазам

8 сезон

Игра престолов

Лицензия

30
pack

ВАЖНО

!!Акция!!

Alien_RageХит недели

RePack

Resident Evil 21

ИГРА 18+

pack

RePack

Metro:Exodus

!!Акция!!

Alien_Rage

RePack

fifa19

RePack

Assassins Creed: Odyssey

RePack

NEED FOR SPEED™ PAYBACK

3 сезон

9 сезон

Бесстыжие 9 сезон

Все сериалы

все сериалы на PB.wtf

RePack

FAR CRY 5
Ребята, катастрофически не хватает 2730р. для оплаты серверов за ИЮНЬ (всвязи с блокировками трафик упал в 3 раза), 1-2р., выручайте.
  

Спаситель / Savior (Предраг Антониевич) [1998 г., Боевик, Военный, Драма, DVDRip, MVO, лицензия] pb.wtf

Спаситель через торрент pb.wtf

Качают: 1 [ 0 KB/s ]
Размер: 1.37 GB | Добавлен: 6 лет 10 мес. назад | Торрент скачан:134 раза
Скачать  

01-09-2012 08:52 Спаситель Скачать торрент  

Спаситель / Savior

Год выпуска: 1998
Страна: США
Жанр: Боевик, Военный, Драма
Продолжительность: 01:39:17
Перевод: Профессиональный многоголосый, Лицензия

Режиссер: Предраг Антониевич
Продюссер: Оливер Стоун, Джанет Янг, Джозеф Бруггеман
Сценарий: Роберт Орр

Бюджет: $10 000 000
Премьера в мире: 1 мая 1998

MPAA: R- лицам до 17 лет обязательно присутствие взрослого
IMDb: 7.10 (6 115)
Кинопоиск: 7.889 941

В ролях: Деннис Куэйд, Настасья Кински, Стеллан Скарсгард, Наташа Никович, Кэтлин Фостер, Джон МакЛэрен

Описание: После трагической смерти жены главный герой отправляется наемником в Югославию. И превращается в хладнокровного убийцу. Судьба сводит его с сербской девушкой, скрывающейся от соотечественников, но та погибает, оставив ему свою новорожденную дочь. Теперь этот огрубевший и потерявший всякую веру в людей человек становится единственной надеждой ребенка на спасение.

Доп. информация: Фильм производит сильнейшее впечатление. Кроме того что это качественный экшн, сюжет которого цепляет с самого начала и держит в напряжении, это ещё фильм с мощной гуманистической идеей, который ещё раз говорит нам о том, что нет ничего хуже войны, где судьбы попадают в такую мясорубку и где по большому счёту нет правых и виноватых. Фильм с очень жёсткими и с очень трогательными моментами.

Считаю фильм одним из немногих, которые остаются в памяти навсегда, а не забываются через 2 минуты после просмотра. Те, кто любит правдивое, «неприлизанное» кино — найдите фильм и посмотрите.

Качество: DVDRip
Формат: AVI
Видео кодек: DivX
Аудио кодек: AC3
Видео: 720x544 (1.32:1), 25 fps, DivX Codec 6.8 ~1582 kbps avg, 0.16 bit/pixel
Аудио#1: 48 kHz, AC3 Dolby Digital, 3/2 (L,C,R,l,r) + LFE ch, ~384.00 kbps avg










Общее
Полное имя : H:torrentSpasitel.1997.DivX.DVDRip.сторонний ресурс.avi
Формат : AVI
Формат/Информация : Audio Video Interleave
Размер файла : 1,37 Гбайт
Продолжительность : 1 ч. 39 м.
Общий поток : 1973 Кбит/сек
Программа кодирования : VirtualDubMod 1.5.4.1 (build 2178/release)
Библиотека кодирования : VirtualDubMod build 2178/release

Видео
Идентификатор : 0
Формат : MPEG-4 Visual
Параметр BVOP формата : 1
Параметр QPel формата : Нет
Параметр GMC формата : Без точки перехода
Параметр матрицы формата : Default (H.263)
Режим смешивания : Сжатый битовый поток
Идентификатор кодека : DX50
Идентификатор кодека/Подсказка : DivX 5
Продолжительность : 1 ч. 39 м.
Битрейт : 1582 Кбит/сек
Ширина : 720 пикселей
Высота : 544 пикселя
Соотношение сторон : 4:3
Частота кадров : 25,000 кадров/сек
Цветовое пространство : YUV
Субдискретизация насыщенности : 4:2:0
Битовая глубина : 8 бит
Тип развёртки : Прогрессивная
Метод сжатия : С потерями
Бит/(Пиксели*Кадры) : 0.162
Размер потока : 1,10 Гбайт (80%)
Библиотека кодирования : DivX 6.8.0 (UTC 2007-12-04)

Аудио
Идентификатор : 1
Формат : AC-3
Формат/Информация : Audio Coding 3
Расширение режима : CM (complete main)
Параметр Endianness формата : Big
Идентификатор кодека : 2000
Продолжительность : 1 ч. 39 м.
Вид битрейта : Постоянный
Битрейт : 384 Кбит/сек
Каналы : 6 каналов
Расположение каналов : Front: L C R, Side: L R, LFE
Частота : 48,0 КГц
Битовая глубина : 16 бит
Метод сжатия : С потерями
Размер потока : 273 Мбайт (19%)
Выравнивание : Разделение по промежуткам
Продолжительность промежутка : 96 мс. (2,40 видеокадра)
Время предзагрузки промежутка : 96 мс.

pb.wtf



Скачать Спаситель через торрент http://pic.kartinco.top/images/1/ufd6zwgz9e.jpg Скачать фильм Спаситель через торрент бесплантно в хорошем качестве Описание: После трагической смерти жены главный герой отправляется наемником в Югославию. И превращается в хладнокровного убийцу. Судьба ... 9 10 5
Info! Золотая раздача, скачанное не засчитывается.
Торрент: Зарегистрирован [2012-09-01 08:52] · скачан: 134 раз
Статус: √ проверено
Размер: 1.37 GB
Как cкачать? Как скачать Спаситель через торрент | qTorrent

% Раздел Тема Автор DL S | L
Фильмы до 2000 г. [ 1.46 GB ] Спаситель / Savior [1998 военный DVDRip] [MVO] + 2x[AVO] killermax2013 Скачать
1 | 0
T Фильмы 2016 [DVDrip, WEB-DLRip, HDrip] (DUB, MVO) [ 1.37 GB ] Шестизарядный спаситель / Six Gun Savior [2016 WEB-DLRip] Любительский многоголосый [Синема УС] Flash77 Скачать
1 | 0


>> Регистрируемся здесь <<






Отзывы и комментарии о схеме читаем и пишем здесь: ---> Отзывы и комментарии о схеме

Новые благодарочки в телеграм довольных пользователей:
скриншот   скриншот   скриншот   скриншот   скриншот

01-09-2012 10:47 Спаситель Скачать торрент  

jump88 писал(а):

Спаситель

Код:

[img=right]http://i43.fastpic.ru/big/2012/0901/3e/cf284df84bc732dacd6572206b3d8c3e.png[/img]

Кто не смотрел этот шедевр в своем жанре.Рекомендую.pb.wtf



07-09-2012 12:15 Спаситель Скачать торрент  

Спасибо! Фильм просто охрененный!pb.wtf



19-02-2013 19:00 Спаситель Скачать торрент  

Фильм - бомба!!! Смотрел давно, не видел названия, но после просмотра дочку назвал именно Вера, потом долго не мог найти как называется, недавно только узнал, смотрел с удовольствием (если конечно так можно выразится, учитывая сцены в фильме)pb.wtf



    Дорогой пользователь! Огромная просьба, поблагодарите релизера, оцените раздачу и оставьте свои комментарий, если Вы скачали Спаситель через торрент бесплатно! Внесите свою лепту в развитие PiratBit!
    Комментировать посты могут только пользователи прошедшие не сложную регистрацию
    Показать сообщения:    

    Спаситель через торрент
    Скачать бесплатно Спаситель
    Спаситель скачать торрент
    Спаситель смотреть онлайн
    Cкачать фильм Спаситель бесплатно
    Спаситель скачать торрент в хорошем качестве
    Спаситель смотреть онлайн бесплатно в хорошем качестве


    Вы не можете начинать темы
    Вы не можете отвечать на сообщения
    Вы не можете редактировать свои сообщения
    Вы не можете удалять свои сообщения
    Вы не можете голосовать в опросах
    Вы не можете прикреплять файлы к сообщениям
    Вы можете скачивать файлы