Всегда рабочее зеркало без VPN и Proxy просто перед .vidak.icu напиши любое слово или цифру, Пример http://rtep.vidak.icu

Лицензия

MVO

1 сезон

1

1 сезон

iTunes

1 сезон

13

1 сезон

Deluxe

pack

Рекомендуем

Repack

30

ВАЖНО

RePack

MK11

RePack

jed

RePack

fifa19

RePack

RDR2

RePack

NEED FOR SPEED™ PAYBACK

Кинопоиск HD

6 сезон

 Острые козырьки 6 сезон

Все сериалы

все сериалы на PB.wtf

RePack

FAR CRY 5
  
Magnet ссылка

Плохая карма / Bad Karma (Сури Кришнамма) [2011 г., Триллер, DVDRip, DVO] pb.wtf

Плохая карма через торрент pb.wtf

Размер: 684 MB | Добавлен: 9 лет назад | Торрент скачан:45 раз
Смотреть онлайн Плохая карма | Скачать    Ребята, помогите собрать деньги на оплату серверов!!!

01-09-2012 08:57 Плохая карма Скачать торрент  

Плохая карма / Bad Karma

[font="Georgia"]Год выпуска: 2011
Страна: США, Австралия
Жанр: Триллер
Продолжительность: 01:27:23
Перевод:Любительский (двухголосый) [den904 & DeadSno] по субтитрам [janetta]

Режиссер: Сури Кришнамма
В ролях: Доминик Пурселл, Рэй Лиотта, Энди МакФи, Ванесса Грэй, Аарон Педерсен, Брэд МакМюррей, Ти Смит, Робин Мур, Кармел Роуз Джентиле, Jordanna Allen

Описание:
Недавно вышедший из тюрьмы бывший наркоман и преступник налаживает совместную жизнь с девушкой.
Однако он решает отомстить, для чего вынужден снова иметь дела со своей старой бандой.

Качество: DVDRip
Формат: AVI
Видео кодек: XviD
Аудио кодек: MP3
Видео: Xvid 704x288 23.976fps 954kbps
Аудио: MPEG Audio Layer 3 44100Hz stereo 128kbps
Общее
Полное имя : E:\Загрузка\Bad.karma.2011.L2.DVDRip.700MB.avi
Формат : AVI
Формат/Информация : Audio Video Interleave
Размер файла : 684 Мбайт
Продолжительность : 1 ч. 27 м.
Общий поток : 1095 Кбит/сек
Программа кодирования : Lavf54.16.104

Видео
Идентификатор : 0
Формат : MPEG-4 Visual
Профиль формата : [email protected]
Параметр BVOP формата : Нет
Параметр QPel формата : Нет
Параметр GMC формата : Без точки перехода
Параметр матрицы формата : Default (H.263)
Идентификатор кодека : XVID
Идентификатор кодека/Подсказка : XviD
Продолжительность : 1 ч. 27 м.
Битрейт : 955 Кбит/сек
Ширина : 704 пикселя
Высота : 288 пикселей
Соотношение сторон : 2,40:1
Частота кадров : 23,976 кадра/сек
Цветовое пространство : YUV
Субдискретизация насыщенности : 4:2:0
Битовая глубина : 8 бит
Тип развёртки : Прогрессивная
Метод сжатия : С потерями
Бит/(Пиксели*Кадры) : 0.196
Размер потока : 597 Мбайт (87%)
Библиотека кодирования : XviD 64

Аудио
Идентификатор : 1
Формат : MPEG Audio
Версия формата : Version 1
Профиль формата : Layer 3
Идентификатор кодека : 55
Идентификатор кодека/Подсказка : MP3
Продолжительность : 1 ч. 27 м.
Вид битрейта : Постоянный
Битрейт : 128 Кбит/сек
Каналы : 2 канала
Частота : 44,1 КГц
Метод сжатия : С потерями
Размер потока : 80,0 Мбайт (12%)
Выравнивание : Соединение по промежуткам
Продолжительность промежутка : 26 мс. (0,63 видеокадр)
Время предзагрузки промежутка : 26 мс.
Библиотека кодирования : LAME3.99.5

pb.wtf



Скачать Плохая карма через торрент http://i43.fastpic.ru/big/2012/0901/d6/c715ae653dcc60cfe13d474ac971efd6.jpg Скачать, смотреть онлайн Плохая карма бесплантно в хорошем качестве Описание: Недавно вышедший из тюрьмы бывший наркоман и преступник налаживает совместную жизнь с девушкой. Однако он решает отомстить, для ... 5 10 1
Info! Золотая раздача, скачанное не засчитывается.
Торрент: Зарегистрирован [2012-09-01 08:57] · скачан: 45 раз
Статус: T временная
Размер: 684 MB
Как cкачать? Как скачать Плохая карма через торрент | UTorrent

% Раздел Тема Автор DL S | L
T Фильмы 2011 [ 1.36 GB ] Плохая карма / Bad Karma [2011 DVDRip DVO] XLASER Скачать
1 | 0

28-11-2019 20:33  

Отключить вcю реклaмy на сайте

    Дорогой пользователь! Огромная просьба, поблагодарите релизера, оцените раздачу и оставьте свои комментарий, если Вы скачали Плохая карма через торрент бесплатно!
    Комментировать посты могут только пользователи прошедшие не сложную регистрацию
    Показать сообщения:    

    Плохая карма через торрент
    Скачать бесплатно Плохая карма
    Плохая карма скачать торрент
    Плохая карма смотреть онлайн
    Cкачать фильм Плохая карма бесплатно
    Плохая карма скачать торрент в хорошем качестве
    Плохая карма смотреть онлайн бесплатно в хорошем качестве


    Вы не можете начинать темы
    Вы не можете отвечать на сообщения
    Вы не можете редактировать свои сообщения
    Вы не можете удалять свои сообщения
    Вы не можете голосовать в опросах
    Вы не можете прикреплять файлы к сообщениям
    Вы можете скачивать файлы