Всегда рабочее зеркало без VPN и Proxy просто перед .vidak.icu напиши любое слово или цифру, Пример http://bl3i.vidak.icu

MVO

Лицензия

1 сезон

1

1 сезон

iTunes

1 сезон

13

1 сезон

Deluxe

pack

Рекомендуем

Repack

30

ВАЖНО

RePack

MK11

RePack

jed

RePack

fifa19

RePack

RDR2

RePack

NEED FOR SPEED™ PAYBACK

Кинопоиск HD

6 сезон

 Острые козырьки 6 сезон

Все сериалы

все сериалы на PB.wtf

RePack

FAR CRY 5
  
Magnet ссылка

Гадкий я: Дилогия / Despicable Me: Dilogy (Пьер Соффин, Крис Рено) [2010, 2013, мультфильм, комедия, криминал, семейный, HDRip-AVC] DUB [Лицензия] от R.G. PiratFilms pb.wtf

Гадкий я: Дилогия через торрент pb.wtf

Размер: 2.9 GB | Добавлен: 8 лет 4 мес. назад | Торрент скачан:1915 раз
Смотреть онлайн Гадкий я: Дилогия | Скачать    Ребята, помогите собрать деньги на оплату серверов!!!

01-09-2012 13:31 Гадкий я: Дилогия Скачать торрент  

Гадкий я / Despicable Me
«Superbad. Superdad»



Год выпуска: 2010
Страна: США
Жанр: мультфильм, комедия, криминал, семейный
Продолжительность: 01:34:48
Перевод: Профессиональный (полное дублирование) [Лицензия]

Режиссер: Пьер Соффин, Крис Рено

В ролях: Стив Карелл, Джейсон Сигел, Расселл Брэнд, Джули Эндрюс, Уилл Арнетт, Кристен Уиг, Миранда Косгров, Дэна Гайер, Элси Фишер, Пьер Коффен

Описание: Гадкий снаружи, но добрый внутри Грю намерен, тем не менее, закрепить за собой статус главного архизлодея в мире, для чего он решает выкрасть Луну при помощи созданной им армии миньонов. Дело осложняют конкуренты, вставляющие высокотехнические палки в колеса, и семейные обстоятельства в виде трех сироток, о которых Грю вынужден заботиться.

|

Качество: HDRip-AVC (Rip by Demonessa) [img]http://goo.gl/gli1Xn[/img]
Исходник: BDRip 1080p
Формат: MKV
Видео кодек: H.264
Аудио кодек: AC3
Видео: H.264, 1024*560, 23,976 кадр/сек, 1809 Кбит/сек, 0.132 Бит/(Пиксели*Кадры)
Аудио: AC3, 384 Кбит/сек, 6 каналов, 48,0 КГц

Код:

---[NoImage] x264 [info]: frame I:1691  Avg QP:14.27  size: 78584  PSNR Mean Y:49.49 U:51.45 V:51.16 Avg:50.00 Global:49.54
---[NoImage] x264 [info]: frame P:51050 Avg QP:17.44  size: 16470  PSNR Mean Y:47.24 U:49.61 V:49.32 Avg:47.82 Global:47.23
---[NoImage] x264 [info]: frame B:83650 Avg QP:21.55  size:  3711  PSNR Mean Y:46.99 U:49.96 V:49.39 Avg:47.67 Global:47.01
---[NoImage] x264 [info]: consecutive B-frames: 14.4% 17.8% 11.3% 17.0% 23.4% 13.5%  2.4%

Код:

Общее
Уникальный идентификатор         : 251483223649792964991597547214104636155 (0xBD31E8374CE5CD07BBCE99C3C7D72AFB)
Полное имя                       : G:VideoRip by DemonessaГадкий Я (Дилогия)Гадкий я Rip by Demonessa.mkv
Формат                           : Matroska
Размер файла                     : 1,45 Гбайт
Продолжительность                : 1 ч. 34 м.
Общий поток                      : 2192 Кбит/сек
Дата кодирования                 : UTC 2012-09-01 13:25:38
Программа кодирования            : mkvmerge v5.6.0 ('Kenya Kane') built on May 27 2012 16:44:04
Библиотека кодирования           : libebml v1.2.3 + libmatroska v1.3.0

Видео
Идентификатор                    : 1
Формат                           : AVC
Формат/Информация                : Advanced Video Codec
Профиль формата                  : [email protected]
Параметр CABAC формата           : Да
Параметр ReFrames формата        : 10 кадры
Идентификатор кодека             : V_MPEG4/ISO/AVC
Продолжительность                : 1 ч. 34 м.
Битрейт                          : 1809 Кбит/сек
Ширина                           : 1024 пикс.
Высота                           : 560 пикс.
Соотношение сторон               : 1,850
Частота кадров                   : 23,976 кадр/сек
Цветовое пространство            : YUV
Подвыборка цветности             : 4:2:0
Битовая глубина                  : 8 бит
Тип развёртки                    : Прогрессивная
Бит/(Пиксели*Кадры)              : 0.132
Размер потока                    : 1,17 Гбайт (80%)
Заголовок                        : Rip by Demonessa
Библиотека кодирования           : x264 core 125 r2200 999b753
Настройки программы              : cabac=1 / ref=10 / deblock=1:-2:-1 / analyse=0x3:0x113 / me=umh / subme=9 / psy=1 / psy_rd=1.00:0.00 / mixed_ref=1 / me_range=32 / chroma_me=1 / trellis=2 / 8x8dct=1 / cqm=0 / deadzone=21,11 / fast_pskip=1 / chroma_qp_offset=-2 / threads=4 / lookahead_threads=1 / sliced_threads=0 / nr=0 / decimate=1 / interlaced=0 / bluray_compat=0 / constrained_intra=0 / bframes=6 / b_pyramid=2 / b_adapt=1 / b_bias=0 / direct=1 / weightb=1 / open_gop=0 / weightp=2 / keyint=240 / keyint_min=23 / scenecut=40 / intra_refresh=0 / rc_lookahead=40 / rc=2pass / mbtree=1 / bitrate=1809 / ratetol=1.0 / qcomp=0.70 / qpmin=10 / qpmax=51 / qpstep=4 / cplxblur=20.0 / qblur=0.5 / ip_ratio=1.40 / aq=1:1.00
Язык                             : English

Аудио
Идентификатор                    : 2
Формат                           : AC-3
Формат/Информация                : Audio Coding 3
Расширение режима                : CM (complete main)
Идентификатор кодека             : A_AC3
Продолжительность                : 1 ч. 34 м.
Вид битрейта                     : Постоянный
Битрейт                          : 384 Кбит/сек
Канал(ы)                         : 6 канала(ов)
Расположение каналов             : Front: L C R, Side: L R, LFE
Частота                          : 48,0 КГц
Битовая глубина                  : 16 бит
Метод сжатия                     : С потерями
Размер потока                    : 260 Мбайт (18%)
Заголовок                        : Дубляж
Язык                             : Russian

скриншот  скриншот  скриншот  скриншот  скриншот  скриншот  
Гадкий я 2 / Despicable Me 2
«More minions. More despicable»



Год выпуска: 2013
Страна: США
Жанр: мультфильм, комедия, криминал, семейный
Продолжительность: 01:37:58
Перевод: Профессиональный (полное дублирование) [Лицензия]

Режиссер: Пьер Коффен, Крис Рено

В ролях: Стив Карелл, Кристен Уиг, Бенджамин Брэтт, Миранда Косгров, Расселл Брэнд, Кен Жонг, Стив Куган, Элси Фишер, Дэна Гайер, Мойзес Ариас

Описание: В то время как Грю, бывший суперзлодей, приспосабливается к семейной жизни и пытается честным трудом зарабатывать в сфере бизнеса, тайные лаборатории Арктики оказываются украденными. Анти-Злодейская лига решает, что она нуждается в помощи Грю и его новобранцев в расследовании.

|

Качество: HDRip-AVC (Rip by Demonessa) [img]http://goo.gl/gli1Xn[/img]
Исходник: BDRip 1080p
Формат: MKV
Видео кодек: H.264
Аудио кодек: AC3
Видео: H.264, 1024*552, 23,976 кадр/сек, 1731 Кбит/сек, 0.128 Бит/(Пиксели*Кадры)
Аудио: AC3, 384 Кбит/сек, 6 каналов, 48,0 КГц

Код:

x264 [info]: frame I:1330  Avg QP:16.25  size: 82796  PSNR Mean Y:47.58 U:49.67 V:48.99 Avg:48.03 Global:47.59
x264 [info]: frame P:38998 Avg QP:19.38  size: 16227  PSNR Mean Y:45.63 U:48.09 V:47.19 Avg:46.14 Global:45.60
x264 [info]: frame B:100621 Avg QP:22.20  size:  5248  PSNR Mean Y:45.31 U:48.07 V:47.00 Avg:45.82 Global:45.19
x264 [info]: consecutive B-frames:  4.7%  5.1% 17.5% 36.7% 13.5% 18.9%  1.7%  1.3%  0.6%

Код:

Общее
Уникальный идентификатор         : 236698120471950200154918973793861833750 (0xB2126659461A1B4AB53F5028DA2F1416)
Полное имя                       : G:VideoRip by DemonessaГадкий Я (Дилогия)Гадкия я 2 Rip by Demonessa.mkv
Формат                           : Matroska
Размер файла                     : 1,45 Гбайт
Продолжительность                : 1 ч. 37 м.
Общий поток                      : 2115 Кбит/сек
Дата кодирования                 : UTC 2014-02-08 15:56:15
Программа кодирования            : mkvmerge v6.5.0 ('Isn't she lovely') built on Oct 20 2013 12:50:05
Библиотека кодирования           : libebml v1.3.0 + libmatroska v1.4.1

Видео
Идентификатор                    : 1
Формат                           : AVC
Формат/Информация                : Advanced Video Codec
Профиль формата                  : [email protected]
Параметр CABAC формата           : Да
Параметр ReFrames формата        : 8 кадры
Идентификатор кодека             : V_MPEG4/ISO/AVC
Продолжительность                : 1 ч. 37 м.
Битрейт                          : 1731 Кбит/сек
Ширина                           : 1024 пикс.
Высота                           : 552 пикс.
Соотношение сторон               : 1,855
Частота кадров                   : 23,976 кадр/сек
Цветовое пространство            : YUV
Подвыборка цветности             : 4:2:0
Битовая глубина                  : 8 бит
Тип развёртки                    : Прогрессивная
Бит/(Пиксели*Кадры)              : 0.128
Размер потока                    : 1,16 Гбайт (80%)
Заголовок                        : Rip by Demonessa
Библиотека кодирования           : x264 core 138 r2358 9e941d1
Настройки программы              : cabac=1 / ref=8 / deblock=1:-2:-1 / analyse=0x3:0x113 / me=umh / subme=9 / psy=1 / psy_rd=1.00:0.00 / mixed_ref=1 / me_range=32 / chroma_me=1 / trellis=2 / 8x8dct=1 / cqm=0 / deadzone=21,11 / fast_pskip=1 / chroma_qp_offset=-2 / threads=4 / lookahead_threads=1 / sliced_threads=0 / nr=0 / decimate=1 / interlaced=0 / bluray_compat=0 / constrained_intra=0 / bframes=8 / b_pyramid=2 / b_adapt=2 / b_bias=0 / direct=1 / weightb=1 / open_gop=0 / weightp=2 / keyint=240 / keyint_min=23 / scenecut=40 / intra_refresh=0 / rc_lookahead=40 / rc=2pass / mbtree=1 / bitrate=1731 / ratetol=1.0 / qcomp=0.75 / qpmin=10 / qpmax=51 / qpstep=4 / cplxblur=20.0 / qblur=0.5 / ip_ratio=1.40 / aq=1:1.00
Язык                             : English

Аудио
Идентификатор                    : 2
Формат                           : AC-3
Формат/Информация                : Audio Coding 3
Расширение режима                : CM (complete main)
Идентификатор кодека             : A_AC3
Продолжительность                : 1 ч. 37 м.
Вид битрейта                     : Постоянный
Битрейт                          : 384 Кбит/сек
Канал(ы)                         : 6 канала(ов)
Расположение каналов             : Front: L C R, Side: L R, LFE
Частота                          : 48,0 КГц
Битовая глубина                  : 16 бит
Метод сжатия                     : С потерями
Размер потока                    : 269 Мбайт (18%)
Язык                             : Russian

скриншот  скриншот  скриншот  
скриншот  скриншот  
скриншот  
pb.wtf



Скачать Гадкий я: Дилогия через торрент http://s002.youpic.su/pictures/1346443200/1ea56dd8c215f65aa619022d1baaadbb.png Скачать, смотреть онлайн Гадкий я: Дилогия бесплантно в хорошем качестве Описание: Гадкий снаружи, но добрый внутри Грю намерен, тем не менее, закрепить за собой статус главного архизлодея в мире, для чего он ... 9.7 10 51
Info! Золотая раздача, скачанное не засчитывается.
Торрент: Зарегистрирован [2014-02-09 10:25] · скачан: 1 915 раз
Статус: √ проверено
Размер: 2.9 GB
Как cкачать? Как скачать Гадкий я: Дилогия через торрент | UTorrent



Последний раз редактировалось: Demonessa (2014-04-07 17:35), всего редактировалось 6 раз(а)

28-11-2019 20:33  

Отключить всю рекламу на сайте

01-09-2012 14:48 Гадкий я: Дилогия Скачать торрент  

Хороший мульт:)pb.wtf



01-09-2012 16:45 Гадкий я: Дилогия Скачать торрент  

зачем ета раздача ??? повысить рейтинг ничего отличителтного от версий в похожих раздачах не вижу ...pb.wtf



01-09-2012 17:18 Гадкий я: Дилогия Скачать торрент  

fragmaster
какие раздачи ты имеешь ввиду?
http://pb.wtf/topic/28739 эту?
http://pb.wtf/topic/28740 или эту?

ps и да мне очень надо поднять рейтинг 10.199 TB отданного - это так малоpb.wtf



08-06-2013 11:39 Гадкий я: Дилогия Скачать торрент  

ребенок просил-скачаем,спасибо pb.wtf



12-06-2013 11:18 Гадкий я: Дилогия Скачать торрент  

мультик ну очень хороший :good: с не терпеньем жду 2-ой части :сonn:pb.wtf



09-02-2014 10:34 Гадкий я: Дилогия Скачать торрент  

Раздача обновлена
Добавлена вторая часть
pb.wtf



09-02-2014 10:50 Гадкий я: Дилогия Скачать торрент  

Цвет шрифта яд.Глаза разъедает.за раздачу спасибо pb.wtf



09-02-2014 13:09 Гадкий я: Дилогия Скачать торрент  

gnev78
смешно
не думала что синий и коричневый могут "глаза разъедать"
может тебе пора монитор менять???pb.wtf



04-02-2015 17:06 Гадкий я: Дилогия Скачать торрент  

скачаю обе части, посмотрим с младшим,спасибоpb.wtf



15-08-2015 11:39 Гадкий я: Дилогия Скачать торрент  

как качество, звук норм?pb.wtf



    Дорогой пользователь! Огромная просьба, поблагодарите релизера, оцените раздачу и оставьте свои комментарий, если Вы скачали Гадкий я: Дилогия через торрент бесплатно!
    Комментировать посты могут только пользователи прошедшие не сложную регистрацию
    Показать сообщения:    

    Гадкий я: Дилогия через торрент
    Скачать бесплатно Гадкий я: Дилогия
    Гадкий я: Дилогия скачать торрент
    Гадкий я: Дилогия смотреть онлайн
    Cкачать фильм Гадкий я: Дилогия бесплатно
    Гадкий я: Дилогия скачать торрент в хорошем качестве
    Гадкий я: Дилогия смотреть онлайн бесплатно в хорошем качестве


    Вы не можете начинать темы
    Вы не можете отвечать на сообщения
    Вы не можете редактировать свои сообщения
    Вы не можете удалять свои сообщения
    Вы не можете голосовать в опросах
    Вы не можете прикреплять файлы к сообщениям
    Вы можете скачивать файлы