Ссылка на приватное зеркало нашего сайта всего за 1$. Внимание количество ограничено!!!

2 сезон

iTunes

1 сезон

1

iTunes

iTunes

iTunes

1 сезон

RePack

30

ИГРА 18+

pack

ВАЖНО

!!Акция!!

Alien_RageХит недели

RePack

MK11
pack

Забери бонус

RePack

jed

!!Акция!!

Alien_Rage

RePack

fifa19

RePack

Assassins Creed: Odyssey

RePack

NEED FOR SPEED™ PAYBACK

4 сезон

9 сезон

Бесстыжие 9 сезон

Все сериалы

все сериалы на PB.wtf

RePack

FAR CRY 5
  

Анальная атака 12 / Anal Attack 12 (Raul Cristian / Evil Angel) [01.09.2012 г., Gonzo, Anal, Gape, WEB-DL, Оригинал, 1080p] pb.wtf

Анальная атака 12 через торрент pb.wtf

Размер: 7.74 GB | Добавлен: 8 лет 1 мес. назад | Торрент скачан:150 раз
Скачать  

01-09-2012 14:47 Анальная атака 12 Скачать торрент  

Анальная атака 12 / Anal Attack 12


Студия : Evil Angel
Сайт : evilangel.com
Страна: U.S.A.
Жанр: Gonzo, Anal, Gape
Продолжительность: 00:27:38 + 00:33:01 + 00:32:00 + 00:32:28 + 00:34:01
Перевод: Оригинал

Режиссер: Raul Cristian

Выход последней пятой сцены на сайте: 01 сентября 2012 г.

В ролях: Angeline A, Gia Orgy, Dona, Carmen E, Rebeca Blake

Описание: The gang of big-dicked butthole bandits at Cruel Media is at it again. These masters of brutal hard-core filth present
'Anal Attack 12' for the Buttman Choice line of anal-themed fetish debauchery. This movie contains five nasty scenes of classic, Cruel-style
carnage starring an all-European cast of sluts sure to satisfy devotees of strong, male-dominant ass fucking. Blonde sexpot Gia Orgy takes
an outrageous backdoor ramming from superstuds Lauro Giotto and Reinhard. They invade the glamorous whore from both ends, graduate
to fierce double-penetration - and they even use a power tool-mounted dildo to literally drill Gia's hungry holes!
Gorgeous, exotic Dona gets her sphincter expanded in a hot session of sodomy that climaxes with Dona swallowing a creamy mouthful of
ball-juice. Foxy brunette Carmen submits to stud Mugur's twisted anal desires; she takes a thorough butt-stuffing that leaves her anus
bruised and battered and her mouth reeking of fresh sperm. Adorable model Angeline takes Frank Gun's pole up her ass, and raven-haired
beauty Rebeca Blake's ass-to-mouth talents are put to the test in a tasty display of anal-flavored intensity. 'Anal Attack 12' is rough, take-no-
prisoners porn that's rectally ruthless!

Доп. информация: http://www.evilangel.com/en/Anal-Attack-12/dvd/12446
General
Complete name : F:\Anal Attack 12_1080p\Scene_1_Gia Orgy.mp4
Format : MPEG-4
Format profile : Base Media
Codec ID : isom
File size : 1.34 GiB
Duration : 27mn 38s
Overall bit rate : 6 931 Kbps
Writing application : Lavf52.93.0

Video
ID : 1
Format : AVC
Format/Info : Advanced Video Codec
Format profile : High@L4.0
Format settings, CABAC : Yes
Format settings, ReFrames : 4 frames
Format settings, GOP : M=3, N=30
Codec ID : avc1
Codec ID/Info : Advanced Video Coding
Duration : 27mn 38s
Bit rate : 6 800 Kbps
Width : 1 920 pixels
Height : 1 080 pixels
Display aspect ratio : 16:9
Frame rate mode : Constant
Frame rate : 29.970 fps
Color space : YUV
Chroma subsampling : 4:2:0
Bit depth : 8 bits
Scan type : Progressive
Bits/(Pixel*Frame) : 0.109
Stream size : 1.31 GiB (98%)
Writing library : x264 core 107
Encoding settings : cabac=1 / ref=3 / deblock=1:0:0 / analyse=0x3:0x113 / me=umh / subme=6 / psy=1 / psy_rd=1.00:0.00 / mixed_ref=1 / me_range=16 / chroma_me=1 / trellis=0 / 8x8dct=1 / cqm=0 / deadzone=21,11 / fast_pskip=1 / chroma_qp_offset=-2 / threads=1 / sliced_threads=0 / nr=0 / decimate=1 / interlaced=0 / constrained_intra=0 / bframes=2 / b_pyramid=2 / b_adapt=2 / b_bias=0 / direct=2 / weightb=1 / open_gop=0 / weightp=0 / keyint=30 / keyint_min=16 / scenecut=0 / intra_refresh=0 / rc_lookahead=30 / rc=abr / mbtree=1 / bitrate=6800 / ratetol=1.0 / qcomp=0.60 / qpmin=1 / qpmax=31 / qpstep=4 / ip_ratio=1.41 / aq=1:1.00

Audio
ID : 2
Format : AAC
Format/Info : Advanced Audio Codec
Format profile : LC
Codec ID : 40
Duration : 27mn 38s
Bit rate mode : Variable
Bit rate : 152 Kbps
Channel(s) : 2 channels
Channel positions : Front: L R
Sampling rate : 44.1 KHz
Compression mode : Lossy
Stream size : 30.0 MiB (2%)

Качество: WEB-DL 1080p
Формат: MP4
Видео кодек: H.264
Аудио кодек: AAC
Видео: MPEG4 Video (H264) 1920x1080 29.97fps 6804kbps
Аудио#1: AAC 44100Hz stereo 151kbps

.......... .......... .......... .......... ..........
pb.wtf



pack Скачать Анальная атака 12 через торрент http://i43.fastpic.ru/big/2012/0901/24/6b64d6f489fac1fb282163c0beb1fa24.jpg Скачать фильм Анальная атака 12 через торрент бесплантно в хорошем качестве Описание: The gang of big-dicked butthole bandits at Cruel Media is at it again. These masters of brutal hard-core filth present 'Anal ... 10 10 1
Info! Золотая раздача, скачанное не засчитывается.
Торрент: Зарегистрирован [2012-09-01 14:47] · скачан: 150 раз
Статус: √ проверено
Размер: 7.74 GB
Как cкачать? Как скачать Анальная атака 12 через торрент | qTorrent

% Раздел Тема Автор DL S | L
Гонзо [ 1.36 GB ] Анальная Атака 9 / Anal Attack 9 [2012 All Sex Oral Gonzo Anal DVDRip Оригинал] sheker187 Скачать
1 | 0
Гонзо [ 1.36 GB ] Анальная Атака 12 / Anal Attack 12 [2012 Anal Gonzo Hardcore CreamPies Foreign DVDRip Оригинал] sheker187 Скачать
1 | 0
Гонзо [ 1.36 GB ] Анальная Атака 10 / Anal Attack 10 [2012 Gonzo Anal DP DVDRip Оригинал] SKAV Скачать
1 | 0
Гонзо [ 1.36 GB ] Анальная Атака 11 / Anal Attack 11 [2012 Gonzo Anal DVDRip] SKAV Скачать
1 | 0

28-11-2019 20:33  

Отключить всю рекламу на сайте

    Дорогой пользователь! Огромная просьба, поблагодарите релизера, оцените раздачу и оставьте свои комментарий, если Вы скачали Анальная атака 12 через торрент бесплатно! Внесите свою лепту в развитие PiratBit!
    Комментировать посты могут только пользователи прошедшие не сложную регистрацию
    Показать сообщения:    

    Анальная атака 12 через торрент
    Скачать бесплатно Анальная атака 12
    Анальная атака 12 скачать торрент
    Анальная атака 12 смотреть онлайн
    Cкачать фильм Анальная атака 12 бесплатно
    Анальная атака 12 скачать торрент в хорошем качестве
    Анальная атака 12 смотреть онлайн бесплатно в хорошем качестве


    Вы не можете начинать темы
    Вы не можете отвечать на сообщения
    Вы не можете редактировать свои сообщения
    Вы не можете удалять свои сообщения
    Вы не можете голосовать в опросах
    Вы не можете прикреплять файлы к сообщениям
    Вы можете скачивать файлы