Всегда рабочее зеркало без VPN и Proxy просто перед .vidak.icu напиши любое слово или цифру, Пример http://nlmr.vidak.icu

MVO

MVO

1 сезон

1

1 сезон

iTunes

1 сезон

13

1 сезон

Deluxe

pack

Рекомендуем

Repack

30

ВАЖНО

RePack

MK11

RePack

jed

RePack

fifa19

RePack

RDR2

RePack

NEED FOR SPEED™ PAYBACK

Кинопоиск HD

6 сезон

 Острые козырьки 6 сезон

Все сериалы

все сериалы на PB.wtf

RePack

FAR CRY 5
  
Magnet ссылка

Вампирнутые / Сумерки: Ломая ветер / Breaking Wind (Крэйг Мосс) [2011 г., комедия, пародия, DVDRip, MVO, лицензия] pb.wtf

Вампирнутые через торрент pb.wtf

Размер: 701 MB | Добавлен: 9 лет назад | Торрент скачан:267 раз
Смотреть онлайн Вампирнутые | Скачать    Ребята, помогите собрать деньги на оплату серверов!!!

01-09-2012 18:00 Вампирнутые Скачать торрент  

Вампирнутые / Сумерки: Ломая ветер / Breaking Wind

Год выпуска: 2011
Страна: США / Primary PIctures
Жанр: комедия, пародия
Продолжительность: 01:18:32
Перевод: Профессиональный многоголосый, Лицензия
Режиссер: Крэйг Мосс

В ролях: Хезер Энн Дэвис, Фрэнк Пачеко, Майкл Хэмилтон, Джон Стивенсон, Ребекка Энн, Джонсон Тейлор, М. Грэхэм, Диллон Гарсиа
Описание:
За внимание манерной девушки Беллы соревнуются гламурный вампир Эдвард, его уменьшенная копия - карлик Маленький Эдвард, и толстый оборотень Джейкоб. Дополнительную суматоху вносит банда "Сосунков" - молодых вампиров, выследивших Беллу по запаху уникального экземпляра порно-журнала "Чёрные стволы", и прибывающих из Сиеттла с целью её убить. Семье вампиров Калленов и стае оборотней предстоит вместе защищать Беллу в смертельной битве с силами зла, чтобы Эдвард и Белла смогли, наконец, пожениться.
Качество: DVDRip
Формат: AVI
Видео кодек: XviD
Аудио кодек: MP3
Видео:XviD, 1109 kb/s, 640x272, 25 fps
Аудио#1:MP3 , 128 kb/s (2 ch), 48 kHz

Общее
Полное имя : D:\Торенты\Sumerki.Lomaja.veter.2011.P.DVDRip.700MB.avi
Формат : AVI
Формат/Информация : Audio Video Interleave
Размер файла : 701 Мбайт
Продолжительность : 1 ч. 18 м.
Общий поток : 1247 Кбит/сек
Программа кодирования : VirtualDubMod 1.5.10.2 (build 2540/release)
Библиотека кодирования : VirtualDubMod build 2540/release

Видео
Идентификатор : 0
Формат : MPEG-4 Visual
Профиль формата : Advanced [email protected]
Параметр BVOP формата : 2
Параметр QPel формата : Нет
Параметр GMC формата : Без точки перехода
Параметр матрицы формата : Выборочная
Идентификатор кодека : XVID
Идентификатор кодека/Подсказка : XviD
Продолжительность : 1 ч. 18 м.
Битрейт : 1110 Кбит/сек
Ширина : 640 пикс.
Высота : 272 пикс.
Соотношение сторон : 2,35:1
Частота кадров : 25,000 кадр/сек
Цветовое пространство : YUV
Подвыборка цветности : 4:2:0
Битовая глубина : 8 бит
Тип развёртки : Прогрессивная
Метод сжатия : С потерями
Бит/(Пиксели*Кадры) : 0.255
Размер потока : 623 Мбайт (89%)
Библиотека кодирования : XviD 1.2.1 (UTC 2008-12-04)

Аудио
Идентификатор : 1
Формат : MPEG Audio
Версия формата : Version 1
Профиль формата : Layer 3
Идентификатор кодека : 55
Идентификатор кодека/Подсказка : MP3
Продолжительность : 1 ч. 18 м.
Вид битрейта : Постоянный
Битрейт : 128 Кбит/сек
Каналы : 2 канала
Частота : 48,0 КГц
Метод сжатия : С потерями
Размер потока : 71,9 Мбайт (10%)
Выравнивание : Соединение по промежуткам
Продолжительность промежутка : 40 мс. (1,00 видеокадр)
Время предзагрузки промежутка : 504 ms
Библиотека кодирования : LAME3.99r
Настройки программы : -m s -V 4 -q 2 -lowpass 17 -b 128

pb.wtf



Скачать Вампирнутые через торрент http://lostpic.net/images/317dc5ba4e231a8f04781789522c12e4.jpg Скачать, смотреть онлайн Вампирнутые бесплантно в хорошем качестве Описание: За внимание манерной девушки Беллы соревнуются гламурный вампир Эдвард, его уменьшенная копия - карлик Маленький Эдвард, и ... 5 10 1
Info! Золотая раздача, скачанное не засчитывается.
Торрент: Зарегистрирован [2012-09-01 18:00] · скачан: 267 раз
Статус: √ проверено
Размер: 701 MB
Как cкачать? Как скачать Вампирнутые через торрент | UTorrent

% Раздел Тема Автор DL S | L
Фильмы 2011 [ 1.37 GB ] Вампирнутые / Сумерки: Ломая ветер / Breaking Wind [2011 пародия DVDRip MVO лицензия] Ворон Скачать
1 | 0

28-11-2019 20:33  

Отключить вcю реклaмy на сайте

01-09-2012 19:00 Вампирнутые Скачать торрент  

хех. спасибоpb.wtf



    Дорогой пользователь! Огромная просьба, поблагодарите релизера, оцените раздачу и оставьте свои комментарий, если Вы скачали Вампирнутые через торрент бесплатно!
    Комментировать посты могут только пользователи прошедшие не сложную регистрацию
    Показать сообщения:    

    Вампирнутые через торрент
    Скачать бесплатно Вампирнутые
    Вампирнутые скачать торрент
    Вампирнутые смотреть онлайн
    Cкачать фильм Вампирнутые бесплатно
    Вампирнутые скачать торрент в хорошем качестве
    Вампирнутые смотреть онлайн бесплатно в хорошем качестве


    Вы не можете начинать темы
    Вы не можете отвечать на сообщения
    Вы не можете редактировать свои сообщения
    Вы не можете удалять свои сообщения
    Вы не можете голосовать в опросах
    Вы не можете прикреплять файлы к сообщениям
    Вы можете скачивать файлы