Всегда рабочее зеркало без VPN и Proxy просто перед .vidak.icu напиши любое слово или цифру, Пример http://kvus.vidak.icu

Лицензия

MVO

1 сезон

1

1 сезон

iTunes

1 сезон

13

1 сезон

Deluxe

pack

Рекомендуем

Repack

30

ВАЖНО

RePack

MK11

RePack

jed

RePack

fifa19

RePack

RDR2

RePack

NEED FOR SPEED™ PAYBACK

Кинопоиск HD

6 сезон

 Острые козырьки 6 сезон

Все сериалы

все сериалы на PB.wtf

RePack

FAR CRY 5
  
Magnet ссылка

Летающий корабль-призрак / Sora tobu yûreisen (Хироши Икеда) [1969 г., аниме, мультфильм, фантастика, приключения, DVDRip, DUB, лицензия] pb.wtf

Летающий корабль-призрак через торрент pb.wtf

Размер: 894 MB | Добавлен: 9 лет назад | Торрент скачан:183 раза
Смотреть онлайн Летающий корабль-призрак | Скачать    Ребята, помогите собрать деньги на оплату серверов!!!

01-09-2012 23:28 Летающий корабль-призрак Скачать торрент  

Летающий корабль-призрак / Sora tobu yûreisen

Год выпуска: 1969
Страна: Япония
Жанр: аниме, мультфильм, фантастика, приключения
Продолжительность: 00:53:40
Перевод: Дубляж, Лицензия

Режиссер: Хироши Икеда
Продюссер: Хироси Окава
Сценарий: Хироши Икеда, Шотару Исимори, Масаки Цудзи

Премьера в мире: 5 мая 1969

MPAA: Для любой зрительской аудитории
IMDb: 6.90 (207)
Кинопоиск: 7.625 1 351

Роли дублировали:Мария Виноградова,Владимир Кенигсон,Роза Макагонова,Владимир Ферапонтов,Алексей Консовский

Описание: Многие годы в океане бесследно пропадают корабли. Люди, чудом оставшиеся в живых, вспоминают что незадолго до катастрофы они видели таинственный Корабль-Призрак… Гигантский робот Голем разрушающий кварталы Токио, объявляет себя посланцем Корабля-Призрака…

На улицах города, у всех на глазах исчезают люди. Все считают, что это козни Корабля-Призрака… И только у отважного мальчика Хаято есть повод сомневаться в этом. Он готов отправиться в рискованное приключение, чтобы узнать тайну Корабля-Призрака и его загадочного капитана!

Качество: DVDRip
Формат: AVI
Видео кодек: XviD
Аудио кодек: AC3
Видео: 672x368 (1.83:1), 25 fps, XviD MPEG-4 ~1933 kbps avg, 0.31 bit/pixel
Аудио#1: 48 kHz, AC3 Dolby Digital, 2/0 (L,R) ch, ~384.00 kbps avg









Общее
Полное имя : H:torrentLetaushii.korabl.prizrak.1969.XviD.DVDRip.сторонний ресурс.avi
Формат : AVI
Формат/Информация : Audio Video Interleave
Размер файла : 894 Мбайт
Продолжительность : 53 м.
Общий поток : 2328 Кбит/сек
Название фильма : Летающий корабль - призрак
Режиссёр : igelvideo
Тема : Летающий корабль - призрак
Программа кодирования : Nandub v1.0rc2
Библиотека кодирования : Nandub build 1853/release
Правообладатель : TTracker.ru

Видео
Идентификатор : 0
Формат : MPEG-4 Visual
Профиль формата : Advanced [email protected]
Параметр BVOP формата : 1
Параметр QPel формата : Нет
Параметр GMC формата : Без точки перехода
Параметр матрицы формата : Default (H.263)
Режим смешивания : Сжатый битовый поток
Идентификатор кодека : XVID
Идентификатор кодека/Подсказка : XviD
Продолжительность : 53 м.
Битрейт : 1934 Кбит/сек
Ширина : 672 пикселя
Высота : 368 пикселей
Соотношение сторон : 1,85:1
Частота кадров : 25,000 кадров/сек
Цветовое пространство : YUV
Субдискретизация насыщенности : 4:2:0
Битовая глубина : 8 бит
Тип развёртки : Прогрессивная
Метод сжатия : С потерями
Бит/(Пиксели*Кадры) : 0.313
Размер потока : 742 Мбайт (83%)
Библиотека кодирования : XviD 1.1.0 (UTC 2005-11-22)

Аудио
Идентификатор : 1
Формат : AC-3
Формат/Информация : Audio Coding 3
Расширение режима : CM (complete main)
Параметр Endianness формата : Big
Идентификатор кодека : 2000
Продолжительность : 53 м.
Вид битрейта : Постоянный
Битрейт : 384 Кбит/сек
Каналы : 2 канала
Расположение каналов : Front: L R
Частота : 48,0 КГц
Битовая глубина : 16 бит
Метод сжатия : С потерями
Размер потока : 147 Мбайт (16%)
Выравнивание : Разделение по промежуткам
Продолжительность промежутка : 40 мс. (1,00 видеокадр)
Время предзагрузки промежутка : 500 мс.

pb.wtf



Скачать Летающий корабль-призрак через торрент https://pic1.kartinco.top/images/111/n3abz58fef.jpg Скачать, смотреть онлайн Летающий корабль-призрак бесплантно в хорошем качестве Описание: Многие годы в океане бесследно пропадают корабли. Люди, чудом оставшиеся в живых, вспоминают что незадолго до катастрофы они ... 10 10 1
Info! Золотая раздача, скачанное не засчитывается.
Торрент: Зарегистрирован [2012-09-01 23:28] · скачан: 183 раз
Статус: √ проверено
Размер: 894 MB
Как cкачать? Как скачать Летающий корабль-призрак через торрент | UTorrent

28-11-2019 20:33  

Отключить вcю реклaмy на сайте

02-09-2012 04:09 Летающий корабль-призрак Скачать торрент  

Учился в 7 классе в 77 году , ходили в кинотеатр на этот мультик . Неплохо смотрелся для советских времён , народ валил валом .pb.wtf



02-09-2012 06:17 Летающий корабль-призрак Скачать торрент  

В свое время был шедеврpb.wtf



25-04-2015 09:37 Летающий корабль-призрак Скачать торрент  

Наконец то я его нашел, помню, что присутствовал корабль и парнишка который накоплял пробки от лимонада! ^^pb.wtf



30-04-2015 09:09 Летающий корабль-призрак Скачать торрент  

долго потом непил пепси после этого мульта (смотрел в пионерлагере 1 отряд)pb.wtf



22-10-2021 14:04 Летающий корабль-призрак Скачать торрент  

Я его посмотрел в 93м году когда мне было 4 годика! Тогда еще Вальтрона показывали. Видимо культовый мульт! Видимо многие советские дети,помнят все что было в 3-4 годика. Хмммpb.wtf



    Дорогой пользователь! Огромная просьба, поблагодарите релизера, оцените раздачу и оставьте свои комментарий, если Вы скачали Летающий корабль-призрак через торрент бесплатно!
    Комментировать посты могут только пользователи прошедшие не сложную регистрацию
    Показать сообщения:    

    Летающий корабль-призрак через торрент
    Скачать бесплатно Летающий корабль-призрак
    Летающий корабль-призрак скачать торрент
    Летающий корабль-призрак смотреть онлайн
    Cкачать фильм Летающий корабль-призрак бесплатно
    Летающий корабль-призрак скачать торрент в хорошем качестве
    Летающий корабль-призрак смотреть онлайн бесплатно в хорошем качестве


    Вы не можете начинать темы
    Вы не можете отвечать на сообщения
    Вы не можете редактировать свои сообщения
    Вы не можете удалять свои сообщения
    Вы не можете голосовать в опросах
    Вы не можете прикреплять файлы к сообщениям
    Вы можете скачивать файлы