Ссылка на приватное зеркало нашего сайта всего за 1$. Внимание количество ограничено!!!

2 сезон

iTunes

1 сезон

1

iTunes

iTunes

iTunes

1 сезон

RePack

30

ИГРА 18+

pack

ВАЖНО

!!Акция!!

Alien_RageХит недели

RePack

MK11
pack

Забери бонус

RePack

jed

!!Акция!!

Alien_Rage

RePack

fifa19

RePack

Assassins Creed: Odyssey

RePack

NEED FOR SPEED™ PAYBACK

4 сезон

9 сезон

Бесстыжие 9 сезон

Все сериалы

все сериалы на PB.wtf

RePack

FAR CRY 5
  

Смелые игры / Triple Dog (Паскаль Франкот) [2010 г., Триллер, Драма, HDRip, DVO ] pb.wtf

Смелые игры через торрент pb.wtf

Размер: 740 MB | Добавлен: 8 лет 1 мес. назад | Торрент скачан:29 раз
Скачать  

03-09-2012 12:46 Смелые игры Скачать торрент  

Смелые игры / Triple Dog

Год выпуска: 2010
Страна: Канада
Жанр: Триллер, Драма
Продолжительность: 01:32:05
Перевод: Профессиональный (двухголосый закадровый) Доп. инфо о переводе (студия Elrom)

Режиссер: Паскаль Франкот

В ролях: Бриттани Робертсон, Алексия Фаст, Скаут Тэйлор-Комптон, Джанель Пэрриш, Эмили Теннант, Карли МакКилип, Бретт Даверн, Джеффри Баллард, Ричард Хэрмон

Описание: Несколько девочек-подростков собираются ночью, чтобы сыграть в интересную игру. Чем опаснее условия, тем увлекательнее! В конце-концов у них появляется шанс разгадать тайну нашумевшего самоубийства одного из студентов.

Качество: HDRip
Формат: AVI
Видео кодек: XviD
Аудио кодек: MP3
Видео: XviD, 720x400, 23.976, 983kbps
Аудио: : MP3 , 48000Hz, 2h, 128kbps

Общее
Полное имя : D:\Торенты\Smelye.Igry.2010.HDRip.XviD.avi
Формат : AVI
Формат/Информация : Audio Video Interleave
Размер файла : 740 Мбайт
Продолжительность : 1 ч. 32 м.
Общий поток : 1124 Кбит/сек
Программа кодирования : Lavf51.12.1

Видео
Идентификатор : 0
Формат : xvid
Идентификатор кодека : xvid
Продолжительность : 1 ч. 32 м.
Битрейт : 983 Кбит/сек
Ширина : 720 пикс.
Высота : 400 пикс.
Соотношение сторон : 16:9
Частота кадров : 23,976 кадр/сек
Бит/(Пиксели*Кадры) : 0.142
Размер потока : 648 Мбайт (87%)

Аудио
Идентификатор : 1
Формат : MPEG Audio
Версия формата : Version 1
Профиль формата : Layer 3
Режим : Joint stereo
Расширение режима : MS Stereo
Идентификатор кодека : 55
Идентификатор кодека/Подсказка : MP3
Продолжительность : 1 ч. 32 м.
Вид битрейта : Постоянный
Битрейт : 128 Кбит/сек
Каналы : 2 канала
Частота : 48,0 КГц
Метод сжатия : С потерями
Размер потока : 84,3 Мбайт (11%)
Выравнивание : Соединение по промежуткам
Продолжительность промежутка : 24 мс. (0,58 видеокадр)
Время предзагрузки промежутка : 24 ms
Библиотека кодирования : LAME3.97

pb.wtf



Скачать Смелые игры через торрент http://i40.fastpic.ru/big/2012/0903/3b/16384dfca68a78d5479365a19d63e63b.png Скачать фильм Смелые игры через торрент бесплантно в хорошем качестве Описание: Несколько девочек-подростков собираются ночью, чтобы сыграть в интересную игру. Чем опаснее условия, тем увлекательнее! В ... 5 10 1
Info! Золотая раздача, скачанное не засчитывается.
Торрент: Зарегистрирован [2012-09-03 12:46] · скачан: 29 раз
Статус: √ проверено
Размер: 740 MB
Как cкачать? Как скачать Смелые игры через торрент | qTorrent

% Раздел Тема Автор DL S | L
Фильмы 2010 [ 1.46 GB ] Смелые игры / Triple Dog [2010 HDRip DVO ] Ворон Скачать
1 | 0

28-11-2019 20:33  

Отключить всю рекламу на сайте

    Дорогой пользователь! Огромная просьба, поблагодарите релизера, оцените раздачу и оставьте свои комментарий, если Вы скачали Смелые игры через торрент бесплатно! Внесите свою лепту в развитие PiratBit!
    Комментировать посты могут только пользователи прошедшие не сложную регистрацию
    Показать сообщения:    

    Смелые игры через торрент
    Скачать бесплатно Смелые игры
    Смелые игры скачать торрент
    Смелые игры смотреть онлайн
    Cкачать фильм Смелые игры бесплатно
    Смелые игры скачать торрент в хорошем качестве
    Смелые игры смотреть онлайн бесплатно в хорошем качестве


    Вы не можете начинать темы
    Вы не можете отвечать на сообщения
    Вы не можете редактировать свои сообщения
    Вы не можете удалять свои сообщения
    Вы не можете голосовать в опросах
    Вы не можете прикреплять файлы к сообщениям
    Вы можете скачивать файлы