новый адрес
Ссылка на приватное зеркало всего за 1$. Внимание количество ограничено!!!

iTunes

1+1

iTunes

мы

iTunes

1

iTunes

Чернобыль

iTunes

Ральф против интернета

Лицензия

ПШазам

Лицензия

Оно 2

Лицензия

30
pack

Вам бонус

ВАЖНО

!!Акция!!

Alien_RageХит недели

RePack

Resident Evil 21

ИГРА 18+

pack

RePack

jed

!!Акция!!

Alien_Rage

RePack

fifa19

RePack

Assassins Creed: Odyssey

RePack

NEED FOR SPEED™ PAYBACK

3 сезон

9 сезон

Бесстыжие 9 сезон

Все сериалы

все сериалы на PB.wtf

RePack

FAR CRY 5
Ребята, катастрофически не хватает 1900р. для оплаты серверов за Октябрь (всвязи с блокировками трафик упал в 3 раза), 1-2р., выручайте.
  

Гавана, я люблю тебя / 7 dias en La Habana / 7 Days in Havana (Бенисио Дель Торо, Пабло Траперо, Элиа Сулейман, Хулио Медем, Гаспар Ноэ, Хуан Карлос Табио, Лоран Канте) [2012 г., Драма, DVDRip, DUB, лицензия] pb.wtf

Гавана, я люблю тебя через торрент pb.wtf

Размер: 1.45 GB | Добавлен: 7 лет 3 мес. назад | Торрент скачан:1045 раз
Скачать  

03-09-2012 20:14 Гавана, я люблю тебя Скачать торрент  

Гавана, я люблю тебя / 7 dias en La Habana / 7 Days in Havana

Год выпуска: 2012
Страна: Франция, Испания
Жанр: Драма
Продолжительность: 02:03:33
Перевод: Дубляж, Лицензия

Режиссер: Бенисио Дель Торо, Пабло Траперо, Элиа Сулейман, Хулио Медем, Гаспар Ноэ, Хуан Карлос Табио, Лоран Канте

В ролях: Даниэль Брюль, Эмир Кустурица, Элиа Сулейман, Джош Хатчерсон, Владимир Крус, Мирта Ибарра, Хорхе Перугоррия, Мелвиз Санта Эстевес, Дэйзи Гранадос, Луис Альберто Гарсия

Описание: Мастера мирового авторского кино сняли 7 маленьких увлекательных историй, действие которых происходит в Гаване.

Качество: DVDRip
Формат: AVI
Видео кодек: XviD
Аудио кодек: AC3
Видео: 720x384, 25.000 fps, 1 228 Kbps (0.178 bit/pixel)
Аудио#1: 48 kHz, AC3 Dolby Digital, 3/2 (L,C,R,l,r) + LFE ch, ~448 kbps [DUB]

Общее
Полное имя : D:\Торенты\Gavana.ja.ljublju.tebja.2012.D.DVDRip.1.46.GB.avi
Формат : AVI
Формат/Информация : Audio Video Interleave
Размер файла : 1,45 Гбайт
Продолжительность : 2 ч. 3 м.
Общий поток : 1685 Кбит/сек
Программа кодирования : VirtualDubMod 1.5.10.3 | www.virtualdub-fr.org || (build 2550/release)
Библиотека кодирования : VirtualDubMod build 2550/release

Видео
Идентификатор : 0
Формат : MPEG-4 Visual
Профиль формата : Advanced Simple@L5
Параметр BVOP формата : 2
Параметр QPel формата : Нет
Параметр GMC формата : Без точки перехода
Параметр матрицы формата : Выборочная
Идентификатор кодека : XVID
Идентификатор кодека/Подсказка : XviD
Продолжительность : 2 ч. 3 м.
Битрейт : 1228 Кбит/сек
Ширина : 720 пикс.
Высота : 384 пикс.
Соотношение сторон : 1,875
Частота кадров : 25,000 кадр/сек
Цветовое пространство : YUV
Подвыборка цветности : 4:2:0
Битовая глубина : 8 бит
Тип развёртки : Прогрессивная
Метод сжатия : С потерями
Бит/(Пиксели*Кадры) : 0.178
Размер потока : 1,06 Гбайт (73%)
Библиотека кодирования : XviD 1.2.1 (UTC 2008-12-04)

Аудио
Идентификатор : 1
Формат : AC-3
Формат/Информация : Audio Coding 3
Расширение режима : CM (complete main)
Идентификатор кодека : 2000
Продолжительность : 2 ч. 3 м.
Вид битрейта : Постоянный
Битрейт : 448 Кбит/сек
Каналы : 6 каналов
Расположение каналов : Front: L C R, Side: L R, LFE
Частота : 48,0 КГц
Битовая глубина : 16 бит
Метод сжатия : С потерями
Размер потока : 396 Мбайт (27%)
Выравнивание : Разделение по промежуткам
Продолжительность промежутка : 40 мс. (1,00 видеокадр)
Время предзагрузки промежутка : 500 ms

pb.wtf



Скачать Гавана, я люблю тебя через торрент http://i43.fastpic.ru/big/2012/0903/6d/758418b9b0b9aab8f948b10495af006d.jpg Скачать фильм Гавана, я люблю тебя через торрент бесплантно в хорошем качестве Описание: Мастера мирового авторского кино сняли 7 маленьких увлекательных историй, действие которых происходит в ... 9.3 10 3
Info! Золотая раздача, скачанное не засчитывается.
Торрент: Зарегистрирован [2012-09-03 20:15] · скачан: 1 045 раз
Статус: √ проверено
Размер: 1.45 GB
Как cкачать? Как скачать Гавана, я люблю тебя через торрент | qTorrent

% Раздел Тема Автор DL S | L
Арт-хаус и авторское кино [ 2.06 GB ] Гавана я люблю тебя / 7 dias en La Habana [2012 BDRip DUB лицензия] oleg8 Скачать
1 | 0
Арт-хаус и авторское кино [ 746 MB ] Гавана я люблю тебя / 7 dias en La Habana / 7 Days in Havana [2012 DVDRip] DUB Oдин 777 Скачать
1 | 0
Фильмы (DVD фильмы) [ 7.01 GB ] Гавана я люблю тебя / 7 dias en La Habana / 7 Days in Havana [2012 DVD9] R5 voovaz Скачать
1 | 0
Арт-хаус и авторское кино [ 2.18 GB ] Гавана я люблю тебя / 7 dias en La Habana / 7 Days in Havana [2012 DVDRip DUB лицензия] Ворон Скачать
1 | 0

28-11-2019 20:33  

Отключить всю рекламу на сайте

14-10-2012 18:10 Гавана, я люблю тебя Скачать торрент  

отличное кино. с большой буквы. причем оба слова - Отличное Кино!pb.wtf



    Дорогой пользователь! Огромная просьба, поблагодарите релизера, оцените раздачу и оставьте свои комментарий, если Вы скачали Гавана, я люблю тебя через торрент бесплатно! Внесите свою лепту в развитие PiratBit!
    Комментировать посты могут только пользователи прошедшие не сложную регистрацию
    Показать сообщения:    

    Гавана, я люблю тебя через торрент
    Скачать бесплатно Гавана, я люблю тебя
    Гавана, я люблю тебя скачать торрент
    Гавана, я люблю тебя смотреть онлайн
    Cкачать фильм Гавана, я люблю тебя бесплатно
    Гавана, я люблю тебя скачать торрент в хорошем качестве
    Гавана, я люблю тебя смотреть онлайн бесплатно в хорошем качестве


    Вы не можете начинать темы
    Вы не можете отвечать на сообщения
    Вы не можете редактировать свои сообщения
    Вы не можете удалять свои сообщения
    Вы не можете голосовать в опросах
    Вы не можете прикреплять файлы к сообщениям
    Вы можете скачивать файлы