2 сезон

iTunes

1 сезон

1

iTunes

iTunes

iTunes

1 сезон

RePack

30

ИГРА 18+

pack

ВАЖНО

!!Акция!!

Alien_RageХит недели

RePack

MK11
pack

Забери бонус

RePack

jed

!!Акция!!

Alien_Rage

RePack

fifa19

RePack

Assassins Creed: Odyssey

RePack

NEED FOR SPEED™ PAYBACK

4 сезон

9 сезон

Бесстыжие 9 сезон

Все сериалы

все сериалы на PB.wtf

RePack

FAR CRY 5
  

Неизвестный / Unknown (Жауме Серра) [2011 г., Триллер, Драма, Детектив, BDRip 1080p, DUB + Оригинал+AVO] pb.wtf

Неизвестный через торрент pb.wtf

Размер: 10.34 GB | Добавлен: 8 лет 1 мес. назад | Торрент скачан:130 раз
Скачать  

03-09-2012 20:18 Неизвестный Скачать торрент  

Неизвестный / Unknown
Год выпуска: 2011
Страна: Великобритания , Германия , Франция , Канада , Япония , США
Жанр: Триллер, Драма, Детектив
Продолжительность: 01:53:12
Перевод: Дубляж + Оригинал+AVO
Язык субтитров: Русские (форсированные, полные)

Режиссер: Жауме Серра




В ролях: Лиам Нисон, Дайан Крюгер, Дженьюэри Джонс, Эйдан Куинн, Бруно Ганц, Фрэнк Ланджелла, Себастьян Кох, Оливье Шнайдер, Стипе Эрчег, Райнер Бок

Описание: В этом фильме рассказывается о мужчине, который после пробуждения от комы обнаруживает, что его личность присвоена другим, и понимает, что никто, даже собственная жена, не верит ему. И тогда при помощи незнакомой молодой женщины-таксистки герой стремится доказать, кто он такой.




Качество: BDRip 1080p
Формат: MKV
Видео кодек: Другой MPEG4
Аудио кодек: AC3, DTS
Видео: AVC, 1920x800 (2.40:1), 23.976 fps, 11.0 Mbps
Аудио#1: AC-3, 48.0 KHz, 6 ch, 384 Kbps, CBR (Russian) - Дублированный
Аудио#2: AC-3, 48.0 KHz, 2 ch, 192 Kbps, CBR (Russian)- Одноголосый (Гаврилов)
Аудио#3: DTS, 48.0 KHz, 6 ch, 1 510 Kbps, CBR (English)

Формат : Matroska
Версия формата : Version 2
Размер файла : 10,3 Гбайт
Продолжительность : 1 ч. 53 м.
Общий поток : 13,1 Мбит/сек
Дата кодирования : UTC 2012-09-02 03:58:45
Программа кодирования : mkvmerge v5.6.0 ('Kenya Kane') built on May 27 2012 16:44:04
Библиотека кодирования : libebml v1.2.3 + libmatroska v1.3.0

Видео
Идентификатор : 1
Формат : AVC
Формат/Информация : Advanced Video Codec
Профиль формата : High@L4.1
Параметр CABAC формата : Да
Параметр ReFrames формата : 5 кадров
Идентификатор кодека : V_MPEG4/ISO/AVC
Продолжительность : 1 ч. 53 м.
Битрейт : 11,0 Мбит/сек
Ширина : 1920 пикселей
Высота : 800 пикселей
Соотношение сторон : 2,40:1
Режим частоты кадров : Постоянный
Частота кадров : 23,976 кадра/сек
Цветовое пространство : YUV
Субдискретизация насыщенности : 4:2:0
Битовая глубина : 8 бит
Тип развёртки : Прогрессивная
Бит/(Пиксели*Кадры) : 0.299
Размер потока : 8,49 Гбайт (82%)
Заголовок : Unknown (2011)
Библиотека кодирования : x264 core 115 r1995 c1e60b9
Настройки программы : cabac=1 / ref=5 / deblock=1:-3:-3 / analyse=0x3:0x113 / me=tesa / subme=10 / psy=1 / psy_rd=1.00:0.00 / mixed_ref=1 / me_range=16 / chroma_me=1 / trellis=2 / 8x8dct=1 / cqm=0 / deadzone=21,11 / fast_pskip=0 / chroma_qp_offset=-2 / threads=6 / sliced_threads=0 / nr=0 / decimate=0 / interlaced=0 / bluray_compat=0 / constrained_intra=0 / bframes=7 / b_pyramid=2 / b_adapt=2 / b_bias=0 / direct=3 / weightb=1 / open_gop=0 / weightp=2 / keyint=250 / keyint_min=23 / scenecut=40 / intra_refresh=0 / rc=2pass / mbtree=0 / bitrate=11000 / ratetol=1.0 / qcomp=0.70 / qpmin=0 / qpmax=69 / qpstep=4 / cplxblur=20.0 / qblur=0.5 / ip_ratio=1.40 / pb_ratio=1.30 / aq=1:0.65
Язык : English
Default : Да
Forced : Нет

Аудио #1
Идентификатор : 2
Формат : AC-3
Формат/Информация : Audio Coding 3
Расширение режима : CM (complete main)
Параметр Endianness формата : Big
Идентификатор кодека : A_AC3
Продолжительность : 1 ч. 53 м.
Вид битрейта : Постоянный
Битрейт : 384 Кбит/сек
Каналы : 6 каналов
Расположение каналов : Front: L C R, Side: L R, LFE
Частота : 48,0 КГц
Битовая глубина : 16 бит
Метод сжатия : С потерями
Размер потока : 311 Мбайт (3%)
Заголовок : Дубляж
Язык : Russian
Default : Да
Forced : Нет

Аудио #2
Идентификатор : 3
Формат : AC-3
Формат/Информация : Audio Coding 3
Расширение режима : CM (complete main)
Параметр Endianness формата : Big
Идентификатор кодека : A_AC3
Продолжительность : 1 ч. 53 м.
Вид битрейта : Постоянный
Битрейт : 192 Кбит/сек
Каналы : 2 канала
Расположение каналов : Front: L R
Частота : 48,0 КГц
Битовая глубина : 16 бит
Метод сжатия : С потерями
Размер потока : 155 Мбайт (1%)
Заголовок : Гаврилов
Язык : Russian
Default : Нет
Forced : Нет

Аудио #3
Идентификатор : 4
Формат : DTS
Формат/Информация : Digital Theater Systems
Идентификатор кодека : A_DTS
Продолжительность : 1 ч. 53 м.
Вид битрейта : Постоянный
Битрейт : 1510 Кбит/сек
Каналы : 6 каналов
Расположение каналов : Front: L C R, Side: L R, LFE
Частота : 48,0 КГц
Битовая глубина : 24 бит
Метод сжатия : С потерями
Размер потока : 1,19 Гбайт (12%)
Язык : English
Default : Нет
Forced : Нет

Текст #1
Идентификатор : 5
Формат : UTF-8
Идентификатор кодека : S_TEXT/UTF8
Идентификатор кодека/Информация : UTF-8 Plain Text
Заголовок : Forced
Язык : Russian
Default : Да
Forced : Нет

Текст #2
Идентификатор : 6
Формат : UTF-8
Идентификатор кодека : S_TEXT/UTF8
Идентификатор кодека/Информация : UTF-8 Plain Text
Язык : Russian
Default : Нет
Forced : Нет

Меню
00:00:00.000 : en:00:00:00.000
00:09:15.388 : en:00:09:15.388
00:19:32.588 : en:00:19:32.588
00:29:58.839 : en:00:29:58.839
00:40:44.776 : en:00:40:44.776
00:49:34.513 : en:00:49:34.513
01:02:26.701 : en:01:02:26.701
01:10:14.710 : en:01:10:14.710
01:20:00.796 : en:01:20:00.796
01:31:05.960 : en:01:31:05.960
01:42:33.856 : en:01:42:33.856
01:48:35.801 : en:01:48:35.801

pb.wtf



Скачать Неизвестный через торрент http://i42.fastpic.ru/big/2012/0902/b3/86cb4da5b01125d9bb7bb38e1a732db3.png Скачать фильм Неизвестный через торрент бесплантно в хорошем качестве Описание: В этом фильме рассказывается о мужчине, который после пробуждения от комы обнаруживает, что его личность присвоена другим, и ... 10 10 2
Info! Золотая раздача, скачанное не засчитывается.
Торрент: Зарегистрирован [2012-09-03 20:18] · скачан: 130 раз
Статус: √ проверено
Размер: 10.34 GB
Как cкачать? Как скачать Неизвестный через торрент | qTorrent

% Раздел Тема Автор DL S | L
Фильмы (WEB-DL 720p, 1080p) [ 9.36 GB ] Неизвестная Тварь / Of Unknown Origin [1983 WEB-DL 1080p от KORSAR] [MVO + DVO + AVO] filbi1976 Скачать
1 | 0
Discovery [ 18.65 GB ] Discovery. Путешествие в неизвестность с Эдом Стаффордом / Ed Stafford Into The Unknown [2015 Документальный природа путешествия экстрим HDTV ] Бумер Скачать
1 | 0
T Фильмы 2018 [DVDrip, WEB-DLRip, HDrip] (DUB, MVO) [ 1.46 GB ] 2036 происхождение неизвестно / 2036 Origin Unknown [2018 BDRip] MVO [HDrezka Studio] bober100 Скачать
1 | 0
T Фильмы 2018 [DVDrip, WEB-DLRip, HDrip] (DUB, MVO) [ 1.76 GB ] 2036 происхождение неизвестно / 2036 Origin Unknown [2018 BDRip-AVC] [MVO] - ExKinoRay Enigma2010 Скачать
1 | 0
T Фильмы (Blu-ray, BD-Remux, HDDVD) [ 15.88 GB ] 2036 происхождение неизвестно / 2036 Origin Unknown [2018 BD Remux 1080p] MVO [HDrezka Studio] bober100 Скачать
1 | 0
T Фильмы 2019-2020 (Звук TS, Cam, VO, DVO) [ 1.7 GB ] 2036 происхождение неизвестно / 2036 Origin Unknown [2018 WEB-DLRip-AVC] DVO [HiWay Grope] - ExKinoRay Enigma2010 Скачать
1 | 0
T Фильмы [HD 720p, 1080p] (Звук Cam, VO, DVO) [ 17.07 GB ] Неизвестный солдат / Tuntematon sotilas / Unknown soldier [2017 военный BDRip 1080р] VO -Lexx- Скачать
1 | 0

28-11-2019 20:33  

Отключить всю рекламу на сайте

04-09-2012 00:39 Неизвестный Скачать торрент  

Отличный фильм. Всем советую посмотреть.pb.wtf



04-09-2012 02:37 Неизвестный Скачать торрент  

Класс pb.wtf



29-11-2012 11:15 Неизвестный Скачать торрент  

Раздайте пожалуйста!pb.wtf



10-06-2015 15:10 Неизвестный Скачать торрент  

Раздайтеpb.wtf



    Дорогой пользователь! Огромная просьба, поблагодарите релизера, оцените раздачу и оставьте свои комментарий, если Вы скачали Неизвестный через торрент бесплатно! Внесите свою лепту в развитие PiratBit!
    Комментировать посты могут только пользователи прошедшие не сложную регистрацию
    Показать сообщения:    

    Неизвестный через торрент
    Скачать бесплатно Неизвестный
    Неизвестный скачать торрент
    Неизвестный смотреть онлайн
    Cкачать фильм Неизвестный бесплатно
    Неизвестный скачать торрент в хорошем качестве
    Неизвестный смотреть онлайн бесплатно в хорошем качестве


    Вы не можете начинать темы
    Вы не можете отвечать на сообщения
    Вы не можете редактировать свои сообщения
    Вы не можете удалять свои сообщения
    Вы не можете голосовать в опросах
    Вы не можете прикреплять файлы к сообщениям
    Вы можете скачивать файлы