новый адрес
Ссылка на приватное зеркало всего за 1$. Внимание количество ограничено!!!

iTunes

1+1

iTunes

мы

WEB-DL

1

iTunes

Чернобыль

iTunes

Ральф против интернета

Лицензия

ПШазам

Лицензия

Оно 2

Лицензия

30
pack

Вам бонус

ВАЖНО

!!Акция!!

Alien_RageХит недели

RePack

Resident Evil 21

ИГРА 18+

pack

RePack

jed

!!Акция!!

Alien_Rage

RePack

fifa19

RePack

Assassins Creed: Odyssey

RePack

NEED FOR SPEED™ PAYBACK

3 сезон

9 сезон

Бесстыжие 9 сезон

Все сериалы

все сериалы на PB.wtf

RePack

FAR CRY 5
Ребята, катастрофически не хватает 1900р. для оплаты серверов за Октябрь (всвязи с блокировками трафик упал в 3 раза), 1-2р., выручайте.
  

Гавана, я люблю тебя / 7 dias en La Habana / 7 Days in Havana (Бенисио Дель Торо / Benicio Del Toro, Пабло Траперо / Pablo Traper, Элиа Сулейман / Elia Suleiman) [2012 г., Драма, DVDRip] DUB pb.wtf

Гавана, я люблю тебя через торрент pb.wtf

Размер: 746 MB | Добавлен: 6 лет 8 мес. назад | Торрент скачан:15 раз
Скачать  

05-09-2012 13:50 Гавана, я люблю тебя Скачать торрент  

Гавана, я люблю тебя / 7 dias en La Habana / 7 Days in Havana
«Страсти из самого центра Кубы»

Год выпуска: 2012
Страна: Франция, Испания / Morena Films, Full House
Жанр: Драма
Продолжительность: 02:03:33
Перевод: Профессиональный (полное дублирование) Лицензия
Субтитры: Нет

Режиссер: Бенисио Дель Торо / Benicio Del Toro, Пабло Траперо / Pablo Traper, Элиа Сулейман / Elia Suleiman

В ролях: Даниэль Брюль, Эмир Кустурица, Элиа Сулейман, Джош Хатчерсон, Владимир Крус, Мирта Ибарра, Хорхе Перугоррия, Мелвиз Санта Эстевес, Дэйзи Гранадос, Луис Альберто Гарсия...

Описание: Мастера мирового авторского кино сняли 7 маленьких увлекательных историй, действие которых происходит в Гаване.

Сэмпл: http://multi-up.com/756565

Качество: DVDRip
Формат: AVI
Видео кодек: XviD
Аудио кодек: МР3
Видео: 688x368 (1.87:1), 23.976 fps, XviD build 50 ~706 kbps avg, 0.12 bit/pixel
Аудио: 48 kHz, MPEG Layer 3, 2 ch, ~128.00 kbps avg
Общее
Полное имя : D:\Рип\Gavana_ja_ljublju_tebja_700.avi
Формат : AVI
Формат/Информация : Audio Video Interleave
Размер файла : 746 Мбайт
Продолжительность : 2 ч. 3 м.
Общий поток : 844 Кбит/сек
Программа кодирования : VirtualDubMod 1.5.10.3 | www.virtualdub-fr.org || (build 2550/release)
Библиотека кодирования : VirtualDubMod build 2550/release

Видео
Идентификатор : 0
Формат : MPEG-4 Visual
Профиль формата : Advanced Simple@L5
Параметр BVOP формата : 1
Параметр QPel формата : Нет
Параметр GMC формата : Без точки перехода
Параметр матрицы формата : Default (MPEG)
Идентификатор кодека : XVID
Идентификатор кодека/Подсказка : XviD
Продолжительность : 2 ч. 3 м.
Битрейт : 707 Кбит/сек
Ширина : 688 пикселей
Высота : 368 пикселей
Соотношение сторон : 1,85:1
Частота кадров : 23,976 кадра/сек
Цветовое пространство : YUV
Субдискретизация насыщенности : 4:2:0
Битовая глубина : 8 бит
Тип развёртки : Прогрессивная
Метод сжатия : С потерями
Бит/(Пиксели*Кадры) : 0.116
Размер потока : 624 Мбайт (84%)
Библиотека кодирования : XviD 1.2.1 (UTC 2008-12-04)

Аудио
Идентификатор : 1
Формат : MPEG Audio
Версия формата : Version 1
Профиль формата : Layer 3
Идентификатор кодека : 55
Идентификатор кодека/Подсказка : MP3
Продолжительность : 2 ч. 3 м.
Вид битрейта : Постоянный
Битрейт : 128 Кбит/сек
Каналы : 2 канала
Частота : 48,0 КГц
Метод сжатия : С потерями
Размер потока : 113 Мбайт (15%)
Выравнивание : Соединение по промежуткам
Продолжительность промежутка : 42 мс. (1,00 видеокадр)
Время предзагрузки промежутка : 504 мс.
Библиотека кодирования : LAME3.98r
Настройки программы : -m s -V 4 -q 2 -lowpass 17 -b 128
pb.wtf



Скачать Гавана, я люблю тебя через торрент http://i43.fastpic.ru/big/2012/0903/6d/758418b9b0b9aab8f948b10495af006d.jpg Скачать фильм Гавана, я люблю тебя через торрент бесплантно в хорошем качестве Описание: Мастера мирового авторского кино сняли 7 маленьких увлекательных историй, действие которых происходит в Гаване.Сэмпл: ... 5 10 1
Info! Золотая раздача, скачанное не засчитывается.
Торрент: Зарегистрирован [2013-03-25 15:08] · скачан: 15 раз
Статус: √ проверено
Размер: 746 MB
Как cкачать? Как скачать Гавана, я люблю тебя через торрент | qTorrent

% Раздел Тема Автор DL S | L
Арт-хаус и авторское кино [ 2.06 GB ] Гавана я люблю тебя / 7 dias en La Habana [2012 BDRip DUB лицензия] oleg8 Скачать
1 | 0
Арт-хаус и авторское кино [ 1.45 GB ] Гавана я люблю тебя / 7 dias en La Habana / 7 Days in Havana [2012 DVDRip DUB лицензия] Ворон Скачать
1 | 0
Арт-хаус и авторское кино [ 2.18 GB ] Гавана я люблю тебя / 7 dias en La Habana / 7 Days in Havana [2012 DVDRip DUB лицензия] Ворон Скачать
1 | 0

28-11-2019 20:33  

Отключить всю рекламу на сайте

    Дорогой пользователь! Огромная просьба, поблагодарите релизера, оцените раздачу и оставьте свои комментарий, если Вы скачали Гавана, я люблю тебя через торрент бесплатно! Внесите свою лепту в развитие PiratBit!
    Комментировать посты могут только пользователи прошедшие не сложную регистрацию
    Показать сообщения:    

    Гавана, я люблю тебя через торрент
    Скачать бесплатно Гавана, я люблю тебя
    Гавана, я люблю тебя скачать торрент
    Гавана, я люблю тебя смотреть онлайн
    Cкачать фильм Гавана, я люблю тебя бесплатно
    Гавана, я люблю тебя скачать торрент в хорошем качестве
    Гавана, я люблю тебя смотреть онлайн бесплатно в хорошем качестве


    Вы не можете начинать темы
    Вы не можете отвечать на сообщения
    Вы не можете редактировать свои сообщения
    Вы не можете удалять свои сообщения
    Вы не можете голосовать в опросах
    Вы не можете прикреплять файлы к сообщениям
    Вы можете скачивать файлы