1 сезон

3 сезон

iTunes

1

Line

MVO

iTunes

13

1 сезон

RePack

30

Deluxe

pack

Лицензия

ВАЖНО

ИГРА 18+

pack

RePack

MK11

RePack

jed

RePack

fifa19

RePack

RDR2

RePack

NEED FOR SPEED™ PAYBACK

4 сезон

9 сезон

Бесстыжие 9 сезон

Все сериалы

все сериалы на PB.wtf

RePack

FAR CRY 5

Anonymous, добрый вечер, мы катастрофически не успеваем собрать деньги на оплату серверов, помогите нам пожалуйста 5,10,15р., для нас важна любая помощь . В качестве благодарности мы отключим Вам всю рекламу на сайте (укажите свой ник в строку Ваше имя)!

×
  
Magnet ссылка

Джунгли зовут! В поисках Марсупилами / Sur la piste du Marsupilami (Ален Шаба / Alain Chabat) [2012, комедия, приключения, семейный, DVD9] R5 pb.wtf

Джунгли зовут! В поисках Марсупилами через торрент pb.wtf

Размер: 6.12 GB | Добавлен: 8 лет 10 мес. назад | Торрент скачан:308 раз
Скачать  

05-09-2012 18:51 Джунгли зовут! В поисках Марсупилами Скачать торрент  


Джунгли зовут! В поисках Марсупилами / Sur la piste du Marsupilami
Страна: Франция, Бельгия
Студия: Canal+ [fr], Chez Wam, Ciné, Le Tax Shelter du Gouvernement Fédéral de Belgique, Pathé, Région Wallone, Scope Pictures, TF1, TF1 Films Production
Жанр: комедия, приключения, семейный
Год выпуска: 2012
Мировая премьера: 4 апреля 2012
Российская премьера: 2 августа 2012
Дата выхода DVD: 6 сентября 2012
Продолжительность: 01:39:17
Перевод: Профессиональный (дублированный) [Лицензия]
Cубтитры: нет
Оригинальная аудиодорожка: нет
Режиссер: Ален Шаба / Alain Chabat
В ролях: Жамель Деббуз, Ален Шаба, Фред Тесто, Ламбер Вильсон, Жеральдин Накаш, Лия Кебеде, Патрик Тимсит, Жак Вебер, Айсса Майга, Далип Синх
Описание: Cпасти карьеру некогда знаменитого телеведущего Дэна Джеральдо может лишь одно — сенсация. В поисках жареных фактов журналист отправляется в таинственную страну Паломбию. С помощью неутомимого местного авантюриста Паблито он выходит на след самого загадочного существа на Земле — рыжего и пушистого, сумчатого и хвостатого зверя Марсупилами. Обаятельнейшее животное каким-то непостижимым образом связано с тайной вечной молодости, и на него объявлена настоящая охота. Путешественникам придется спасти Марсупилами от безумных ученых, грозных военных, алчных браконьеров и прочих напастей, которые таят джунгли.
Бонусы: нет

Релиз группы:
Качество: DVD9 R5
Формат: DVD-Video
Видео кодек: MPEG2
Аудио кодек: AC3 + DTS
Видео: PAL 16:9 (720x576(0.700)) MPEG Video, 25,000 кадр/сек, 7254 Кбит/сек
Аудио #1: Russian (Dolby AC3, 6 ch) 256 Кбит/сек, 48,0 КГц
Аудио #2: Russian (DTS, 6 ch) 768 Кбит/сек, 48,0 КГц



Title: Dzhungli.zovut.V.poiskah.Marsupilami.2012.DVD9
Size: 6.12 Gb ( 6 421 120,00 KBytes ) - DVD-9
Enabled regions: 1, 2, 3, 4, 5, 6, 7, 8

VTS_01 :
Play Length: 00:00:10
Video: PAL 16:9 (720x576) VBR, Auto Pan&Scan, Auto Letterboxed

VTS_02 :
Play Length: 00:00:06
Video: PAL 16:9 (720x576) VBR, Auto Pan&Scan, Auto Letterboxed

VTS_03 :
Play Length: 01:39:17
Video: PAL 16:9 (720x576) VBR, Auto Pan&Scan, Auto Letterboxed
Audio:
Not specified (Dolby AC3, 6 ch)
Not specified (DTS, 6 ch)

* Menus Information *

VIDEO_TS Menu
Video:
PAL 16:9 (720x576) VBR
Auto Pan&Scan, Auto Letterboxed
English Language Unit :
Title Menu

VTS_01 Menu
Video:
PAL 16:9 (720x576) VBR
Auto Pan&Scan, Auto Letterboxed
Audio:
Not specified (Dolby AC3, 6 ch)
English Language Unit :
Root Menu

VTS_02 Menu
Video:
PAL 4:3 (720x576) VBR
English Language Unit :
Root Menu

VTS_03 Menu
Video:
PAL 4:3 (720x576) VBR
Общее
Полное имя : J:\Новинки 2012\Dzhungli.zovut.V.poiskah.Marsupilami.2012.DVD9\VIDEO_TS\VTS_03_3.VOB
Формат : MPEG-PS
Размер файла : 1024 Мбайт
Продолжительность : 16 м.
Режим общего битрейта : Переменный
Общий поток : 8432 Кбит/сек

Видео
Идентификатор : 224 (0xE0)
Формат : MPEG Video
Версия формата : Version 2
Профиль формата : Main@Main
Параметр BVOP формата : Да
Параметр матрицы формата : Выборочная
Параметр GOP формата : M=3, N=15
Продолжительность : 16 м.
Вид битрейта : Переменный
Битрейт : 7254 Кбит/сек
Максимальный битрейт : 8400 Кбит/сек
Ширина : 720 пикселей
Высота : 576 пикселей
Соотношение сторон : 16:9
Частота кадров : 25,000 кадров/сек
Стандарт вещания : PAL
Цветовое пространство : YUV
Субдискретизация насыщенности : 4:2:0
Битовая глубина : 8 бит
Тип развёртки : Чересстрочная
Порядок развёртки : Верхнее поле первое
Метод сжатия : С потерями
Бит/(Пиксели*Кадры) : 0.700
Размер потока : 881 Мбайт (86%)

Аудио #1
Идентификатор : 189 (0xBD)-128 (0x80)
Формат : AC-3
Формат/Информация : Audio Coding 3
Расширение режима : CM (complete main)
Параметр Endianness формата : Big
Режим смешивания : DVD-Video
Продолжительность : 16 м.
Вид битрейта : Постоянный
Битрейт : 256 Кбит/сек
Каналы : 6 каналов
Расположение каналов : Front: L C R, Side: L R, LFE
Частота : 48,0 КГц
Битовая глубина : 16 бит
Метод сжатия : С потерями
Задержка видео : -352 мс.
Размер потока : 31,1 Мбайт (3%)

Аудио #2
Идентификатор : 189 (0xBD)-137 (0x89)
Формат : DTS
Формат/Информация : Digital Theater Systems
Режим смешивания : DVD-Video
Продолжительность : 16 м.
Вид битрейта : Постоянный
Битрейт : 755 Кбит/сек
Каналы : 6 каналов
Расположение каналов : Front: L C R, Side: L R, LFE
Частота : 48,0 КГц
Битовая глубина : 24 бит
Метод сжатия : С потерями
Задержка видео : -427 мс.
Размер потока : 91,6 Мбайт (9%)










pb.wtf



Скачать Джунгли зовут! В поисках Марсупилами через торрент http://i40.fastpic.ru/big/2012/0905/aa/f323aefd8161159e7eeea85d27d5c3aa.jpg Скачать фильм Джунгли зовут! В поисках Марсупилами через торрент бесплантно в хорошем качестве Описание: Cпасти карьеру некогда знаменитого телеведущего Дэна Джеральдо может лишь одно — сенсация. В поисках жареных фактов журналист ... 5 10 1
Info! Золотая раздача, скачанное не засчитывается.
Торрент: Зарегистрирован [2012-09-05 18:51] · скачан: 308 раз
Статус: √ проверено
Размер: 6.12 GB
Как cкачать? Как скачать Джунгли зовут! В поисках Марсупилами через торрент | UTorrent

28-11-2019 20:33  

Отключить всю рекламу на сайте

05-09-2012 18:58 Джунгли зовут! В поисках Марсупилами Скачать торрент  

Доця будет довольна, СПАСИБАА!!!pb.wtf



05-09-2012 19:20 Джунгли зовут! В поисках Марсупилами Скачать торрент  

вот это я понимаю размер, а не этих 700 МБ. какое же там качество, что просто невозможно смотретьpb.wtf



06-09-2012 14:39 Джунгли зовут! В поисках Марсупилами Скачать торрент  

а перевод не вырезан?pb.wtf



    Дорогой пользователь! Огромная просьба, поблагодарите релизера, оцените раздачу и оставьте свои комментарий, если Вы скачали Джунгли зовут! В поисках Марсупилами через торрент бесплатно! Внесите свою лепту в развитие PiratBit!
    Комментировать посты могут только пользователи прошедшие не сложную регистрацию
    Показать сообщения:    

    Джунгли зовут! В поисках Марсупилами через торрент
    Скачать бесплатно Джунгли зовут! В поисках Марсупилами
    Джунгли зовут! В поисках Марсупилами скачать торрент
    Джунгли зовут! В поисках Марсупилами смотреть онлайн
    Cкачать фильм Джунгли зовут! В поисках Марсупилами бесплатно
    Джунгли зовут! В поисках Марсупилами скачать торрент в хорошем качестве
    Джунгли зовут! В поисках Марсупилами смотреть онлайн бесплатно в хорошем качестве


    Вы не можете начинать темы
    Вы не можете отвечать на сообщения
    Вы не можете редактировать свои сообщения
    Вы не можете удалять свои сообщения
    Вы не можете голосовать в опросах
    Вы не можете прикреплять файлы к сообщениям
    Вы можете скачивать файлы