2 сезон

iTunes

MVO

1

2 сезон

iTunes

iTunes

1 сезон

RePack

30

Ultimate

ВАЖНО

ИГРА 18+

pack

RePack

MK11
pack

Легкие деньги

RePack

jed

RePack

fifa19

RePack

RDR2

RePack

NEED FOR SPEED™ PAYBACK

4 сезон

9 сезон

Бесстыжие 9 сезон

Все сериалы

все сериалы на PB.wtf

RePack

FAR CRY 5

Anonymous, добрый день, мы не успеваем собрать деньги на оплату серверов за декабрь и январь, помогите нам пожалуйста в это трудное время. В качестве благодарности мы отключим Вам всю рекламу на сайте (укажите свой ник в строку Ваше имя)!

×
  
Magnet ссылка

Прогулки с монстрами будущего / The Future Is Wild (Джон Адамс) [2003 г., мультфильм, документальный, DVDRip, MVO] pb.wtf

Прогулки с монстрами будущего через торрент pb.wtf

Размер: 2.19 GB | Добавлен: 8 лет 4 мес. назад | Торрент скачан:419 раз
Скачать  

06-09-2012 02:19 Прогулки с монстрами будущего Скачать торрент  

Прогулки с монстрами будущего / The Future Is Wild

«Земля через 5 миллионов лет»

Год выпуска: 2003
Страна: Великобритания
Жанр: мультфильм, документальный
Продолжительность: 02:36:28
Перевод: Профессиональный (многоголосый, закадровый)

Режиссер: Джон Адамс
Продюссер: Джон Адамс, Клер Дорнан, Даниела Бальяни
Сценарий: Victoria Couled

Премьера в мире: 27 января 2004

Мировой рейтинг IMDB 7.70 (333)


В ролях: Christian Rodska, Джереми Рэйнер, Bruce H. Tiffney, Стефен Харрис, Stephen R. Palumbi, Richard Fortey, Уильям Джилли, Майк Линли, Филип Карри, Роберт МакНейлл Александр

Описание: Вы хотите узнать, что ждет нашу планету в далеком будущем? Как преобразится Земля, пережив глобальные катаклизмы, губительные изменения климата, столкновения материков и нашествие удивительных и невероятных существ? Теперь у Вас есть уникальная возможность заглянуть в неведомое грядущее вместе с создателями сенсационного фильма «Дикий мир будущего»! Без машины времени Вы перенесетесь в будущее на 5 000 000, 100 000 000 и 200 000 000 лет, чтобы увидеть мир, достойный пера гениального фантаста. Но то, что предстанет Вашему взору, вовсе не выдумка! Пользуясь сложнейшими расчетами, строго обоснованными прогнозами и богатейшими познаниями в биологии и геологии, ведущие ученые из США, Великобритании, Германии и Канады вместе с мастерами компьютерной анимации создали портрет нашей планеты и ее обитателей спустя много веков после того, как ее покинет последний человек.

Доп. информация:
релиз на DVD 10 декабря 2009, «MC Entertainment»,

Качество: DVDRip
Формат: AVI
Видео кодек: XviD
Аудио кодек: AC3
Видео: 688x400 (1.72:1), 25 fps, XviD build 65 ~1612 kbps avg, 0.23 bit/pixel
Аудио#1: 48 kHz, AC3 Dolby Digital, 3/2 (L,C,R,l,r) + LFE ch, ~384 kbps


Формат : AVI
Формат/Информация : Audio Video Interleave
Профиль формата : OpenDML
Размер файла : 2,19 Гбайт
Продолжительность : 2 ч. 36 м.
Общий поток : 2004 Кбит/сек
Программа кодирования : VirtualDubMod 1.5.10.3 | www.virtualdub-fr.org || (build 2550/release)
Библиотека кодирования : VirtualDubMod build 2550/release

Видео
Идентификатор : 0
Формат : MPEG-4 Visual
Профиль формата : Advanced Simple@L5
Параметр BVOP формата : 1
Параметр QPel формата : Нет
Параметр GMC формата : Без точки перехода
Параметр матрицы формата : Выборочная
Идентификатор кодека : XVID
Идентификатор кодека/Подсказка : XviD
Продолжительность : 2 ч. 36 м.
Битрейт : 1607 Кбит/сек
Ширина : 688 пикселей
Высота : 400 пикселей
Соотношение сторон : 1,720
Частота кадров : 25,000 кадров/сек
Цветовое пространство : YUV
Субдискретизация насыщенности : 4:2:0
Битовая глубина : 8 бит
Тип развёртки : Прогрессивная
Метод сжатия : С потерями
Бит/(Пиксели*Кадры) : 0.234
Размер потока : 1,76 Гбайт (80%)
Библиотека кодирования : XviD 65

Аудио
Идентификатор : 1
Формат : AC-3
Формат/Информация : Audio Coding 3
Расширение режима : CM (complete main)
Параметр Endianness формата : Big
Идентификатор кодека : 2000
Продолжительность : 2 ч. 36 м.
Вид битрейта : Постоянный
Битрейт : 384 Кбит/сек
Каналы : 6 каналов
Расположение каналов : Front: L C R, Side: L R, LFE
Частота : 48,0 КГц
Битовая глубина : 16 бит
Метод сжатия : С потерями
Размер потока : 430 Мбайт (19%)
Выравнивание : Разделение по промежуткам
Продолжительность промежутка : 40 мс. (1,00 видеокадр)
Время предзагрузки промежутка : 500 мс.

pb.wtf



Скачать Прогулки с монстрами будущего через торрент http://pic.kartinco.top/images/1/3vj3bu2fv1.png Скачать фильм Прогулки с монстрами будущего через торрент бесплантно в хорошем качестве Описание: Вы хотите узнать, что ждет нашу планету в далеком будущем? Как преобразится Земля, пережив глобальные катаклизмы, губительные ... 5 10 1
Info! Золотая раздача, скачанное не засчитывается.
Торрент: Зарегистрирован [2012-09-06 02:19] · скачан: 419 раз
Статус: √ проверено
Размер: 2.19 GB
Как cкачать? Как скачать Прогулки с монстрами будущего через торрент | UTorrent

28-11-2019 20:33  

Отключить всю рекламу на сайте

06-09-2012 02:24 Прогулки с монстрами будущего Скачать торрент  

Интересно, забираю :)pb.wtf



06-09-2012 05:32 Прогулки с монстрами будущего Скачать торрент  

Надо глянуть,спасибоpb.wtf



06-09-2012 08:38 Прогулки с монстрами будущего Скачать торрент  

Спасибо. Интересно, есть ли такая же в 3D?pb.wtf



06-09-2012 09:21 Прогулки с монстрами будущего Скачать торрент  

Пля чё эти учёные курят))) Может дадут попробоватьpb.wtf



06-09-2012 15:11 Прогулки с монстрами будущего Скачать торрент  

Спасибо! Поглядимpb.wtf



    Дорогой пользователь! Огромная просьба, поблагодарите релизера, оцените раздачу и оставьте свои комментарий, если Вы скачали Прогулки с монстрами будущего через торрент бесплатно! Внесите свою лепту в развитие PiratBit!
    Комментировать посты могут только пользователи прошедшие не сложную регистрацию
    Показать сообщения:    

    Прогулки с монстрами будущего через торрент
    Скачать бесплатно Прогулки с монстрами будущего
    Прогулки с монстрами будущего скачать торрент
    Прогулки с монстрами будущего смотреть онлайн
    Cкачать фильм Прогулки с монстрами будущего бесплатно
    Прогулки с монстрами будущего скачать торрент в хорошем качестве
    Прогулки с монстрами будущего смотреть онлайн бесплатно в хорошем качестве


    Вы не можете начинать темы
    Вы не можете отвечать на сообщения
    Вы не можете редактировать свои сообщения
    Вы не можете удалять свои сообщения
    Вы не можете голосовать в опросах
    Вы не можете прикреплять файлы к сообщениям
    Вы можете скачивать файлы