Мега распродажа FORZA HORIZON 4 ULTIMATE+ВСЕ DLC+ОНЛАЙН всего за 499р. 349 руб. (супер цена). Внимание количество ограничено!!!

iTunes

1+1

iTunes

мы

iTunes

1

1 сезон

Чернобыль

1 сезон

Ральф против интернета

Лицензия

ПШазам

8 сезон

Игра престолов

Лицензия

30
pack

ВАЖНО

!!Акция!!

Alien_RageХит недели

RePack

Resident Evil 21

ИГРА 18+

pack

RePack

Metro:Exodus

!!Акция!!

Alien_Rage

RePack

fifa19

RePack

Assassins Creed: Odyssey

RePack

NEED FOR SPEED™ PAYBACK

3 сезон

9 сезон

Бесстыжие 9 сезон

Все сериалы

все сериалы на PB.wtf

RePack

FAR CRY 5
Ребята, катастрофически не хватает 2730р. для оплаты серверов за ИЮНЬ (всвязи с блокировками трафик упал в 3 раза), 1-2р., выручайте.
  

Как возбудить женщину / Разворот / Щелчёк / Щеколда / The Turn-On / Le Déclic (Жан-Луи Ришар / Jean-Louis Richard) [1989 г., Эротика, триллер, комедия, VHSRip] AVO Володарский + AVO Дольский pb.wtf

Как возбудить женщину через торрент pb.wtf

Размер: 1.44 GB | Добавлен: 6 лет 3 мес. назад | Торрент скачан:30 раз
Скачать  

06-09-2012 13:38 Как возбудить женщину Скачать торрент  

Как возбудить женщину / Разворот / Щелчёк / Щеколда / The Turn-On / Le Déclic

Год выпуска: 1989
Страна: Франция
Жанр: Эротика, триллер, комедия
Продолжительность: 01:13:56
Перевод 1: Авторский (одноголосый закадровый) Володарский
Перевод 2: Авторский (одноголосый закадровый) Дольский
Субтитры: Нет

Режиссер: Жан-Луи Ришар / Jean-Louis Richard

В ролях: Флоранс Герен, Жан-Пьер Кальфон, Берни Каби, Жеральдин Перне, Жаклин Шове, Корин Коррон, Жерар-Антуан Юар, Фабрис Джоссо, Крофтон Хардестер, Жасмин Маймоне и другие.

Описание: Талантливый биомеханик Фец настолько ненавидит своего богатого, но (как он сам его характеризует) «гнилого» шефа Кристиана, что готов подстроить ему любую гадость. Например, овладеть его абсолютно фригидной женой. С этой целью ученый создает уникальный прибор, способный на расстоянии возбудить любую женщину, превратить ее в ненасытную тигрицу любви, одержимую страстью…

Сэмпл: http://multi-up.com/756963

Качество: VHSRip
Формат: AVI
Видео кодек: XviD
Аудио кодек: AC3
Видео: 704x528 (1.33:1), 25 fps, XviD build 50 ~2392 kbps avg, 0.26 bit/pixel
Аудио 1: 48 kHz, AC3 Dolby Digital, 2/0 (L,R) ch, ~192 kbps AVO Володарский
Аудио 2: 48 kHz, AC3 Dolby Digital, 2/0 (L,R) ch, ~192 kbps AVO Дольский
Общее
Полное имя : D:\Рип\Turn-On_1989_1400.avi
Формат : AVI
Формат/Информация : Audio Video Interleave
Размер файла : 1,44 Гбайт
Продолжительность : 1 ч. 13 м.
Общий поток : 2792 Кбит/сек
Программа кодирования : VirtualDubMod 1.5.10.3 (build 2550/release)
Библиотека кодирования : VirtualDubMod build 2550/release

Видео
Идентификатор : 0
Формат : MPEG-4 Visual
Профиль формата : Advanced Simple@L5
Параметр BVOP формата : 1
Параметр QPel формата : Нет
Параметр GMC формата : Без точки перехода
Параметр матрицы формата : Default (MPEG)
Идентификатор кодека : XVID
Идентификатор кодека/Подсказка : XviD
Продолжительность : 1 ч. 13 м.
Битрейт : 2394 Кбит/сек
Ширина : 704 пикселя
Высота : 528 пикселей
Соотношение сторон : 4:3
Частота кадров : 25,000 кадров/сек
Цветовое пространство : YUV
Субдискретизация насыщенности : 4:2:0
Битовая глубина : 8 бит
Тип развёртки : Прогрессивная
Метод сжатия : С потерями
Бит/(Пиксели*Кадры) : 0.258
Размер потока : 1,24 Гбайт (86%)
Библиотека кодирования : XviD 1.2.1 (UTC 2008-12-04)

Аудио #1
Идентификатор : 1
Формат : AC-3
Формат/Информация : Audio Coding 3
Расширение режима : CM (complete main)
Параметр Endianness формата : Big
Идентификатор кодека : 2000
Продолжительность : 1 ч. 13 м.
Вид битрейта : Постоянный
Битрейт : 192 Кбит/сек
Каналы : 2 канала
Расположение каналов : Front: L R
Частота : 48,0 КГц
Битовая глубина : 16 бит
Метод сжатия : С потерями
Размер потока : 101 Мбайт (7%)
Выравнивание : Разделение по промежуткам
Продолжительность промежутка : 40 мс. (1,00 видеокадр)
Время предзагрузки промежутка : 500 мс.

Аудио #2
Идентификатор : 2
Формат : AC-3
Формат/Информация : Audio Coding 3
Расширение режима : CM (complete main)
Параметр Endianness формата : Big
Идентификатор кодека : 2000
Продолжительность : 1 ч. 13 м.
Вид битрейта : Постоянный
Битрейт : 192 Кбит/сек
Каналы : 2 канала
Расположение каналов : Front: L R
Частота : 48,0 КГц
Битовая глубина : 16 бит
Метод сжатия : С потерями
Размер потока : 101 Мбайт (7%)
Выравнивание : Разделение по промежуткам
Продолжительность промежутка : 40 мс. (1,00 видеокадр)
Время предзагрузки промежутка : 500 мс.
pb.wtf



Скачать Как возбудить женщину через торрент http://i43.fastpic.ru/big/2012/0905/b4/7949edbdb4d95fae3d4eccff68d641b4.jpg Скачать фильм Как возбудить женщину через торрент бесплантно в хорошем качестве Описание: Талантливый биомеханик Фец настолько ненавидит своего богатого, но (как он сам его характеризует) «гнилого» шефа Кристиана, что ... 9 10 2
Info! Золотая раздача, скачанное не засчитывается.
Торрент: Зарегистрирован [2013-03-25 15:13] · скачан: 30 раз
Статус: √ проверено
Размер: 1.44 GB
Как cкачать? Как скачать Как возбудить женщину через торрент | qTorrent

% Раздел Тема Автор DL S | L
Фильмы до 2000 г. [ 749 MB ] Как возбудить женщину / Разворот / Щелчёк / Щеколда / The Turn-On / Le Déclic [1989 Эротика VHSRip] AVO Володарский + AVO Дольский Oдин 777 Скачать
1 | 0


>> Регистрируемся здесь <<






Отзывы и комментарии о схеме читаем и пишем здесь: ---> Отзывы и комментарии о схеме

Новые благодарочки в телеграм довольных пользователей:
скриншот   скриншот   скриншот   скриншот   скриншот

06-09-2012 17:10 Как возбудить женщину Скачать торрент  

Нормалды фильмец или идиотизм?pb.wtf



    Дорогой пользователь! Огромная просьба, поблагодарите релизера, оцените раздачу и оставьте свои комментарий, если Вы скачали Как возбудить женщину через торрент бесплатно! Внесите свою лепту в развитие PiratBit!
    Комментировать посты могут только пользователи прошедшие не сложную регистрацию
    Показать сообщения:    

    Как возбудить женщину через торрент
    Скачать бесплатно Как возбудить женщину
    Как возбудить женщину скачать торрент
    Как возбудить женщину смотреть онлайн
    Cкачать фильм Как возбудить женщину бесплатно
    Как возбудить женщину скачать торрент в хорошем качестве
    Как возбудить женщину смотреть онлайн бесплатно в хорошем качестве


    Вы не можете начинать темы
    Вы не можете отвечать на сообщения
    Вы не можете редактировать свои сообщения
    Вы не можете удалять свои сообщения
    Вы не можете голосовать в опросах
    Вы не можете прикреплять файлы к сообщениям
    Вы можете скачивать файлы