1 сезон

1 сезон

iTunes

1

КиноПоиск HD

Кинопоиск HD

iTunes

13

1 сезон

RePack

30

Ultimate

ВАЖНО

ИГРА 18+

pack

RePack

MK11
pack

Легкие деньги

RePack

jed

RePack

fifa19

RePack

RDR2

RePack

NEED FOR SPEED™ PAYBACK

4 сезон

9 сезон

Бесстыжие 9 сезон

Все сериалы

все сериалы на PB.wtf

RePack

FAR CRY 5
  
Magnet ссылка

Триумф / The Greatest Game Ever Played (Билл Пэкстон) [2005 г., драма, история, спорт, BDRip, MVO, лицензия] pb.wtf

Триумф через торрент pb.wtf

Размер: 2.18 GB | Добавлен: 8 лет 7 мес. назад | Торрент скачан:55 раз
Скачать  

06-09-2012 14:57 Триумф Скачать торрент  

Триумф / The Greatest Game Ever Played

Год выпуска: 2005
Страна: США
Жанр: драма, история, спорт
Продолжительность: 120 мин. / 02:00
Перевод: Профессиональный многоголосый, Лицензия

Режиссер: Билл Пэкстон
Продюссер: Дэвид Блокер, Ларри Брэзнер, Марк Фрост
Сценарий: Марк Фрост

Бюджет: $15 337 393
Премьера в мире: 30 сентября 2005





В ролях: Шайа ЛаБаф, Марни МакПайл, Стивен Диллэйн, Джош Флиттер, Питер Фёрт, Пейтон Лист, Элиас Котеас, Лен Кариу, Стивен Маркус, Джеймс Пэкстон, Алексей Елистратов

Описание: Спортивная статистика тщательно регистрирует все рекорды. Но лишь живая память способна сохранить драгоценные мгновения триумфа человеческой воли к победе. Ведь сухие цифры на бумаге никогда не передадут того ощущения чуда, которое вызывают некоторые поистине фантастические достижения.А то, что произошло на первенстве по гольфу US Open в 1913 году, уместнее назвать именно чудом. Тогда никому не известный 20-летний паренек Франсис Уиме, считавшийся аутсайдером, наголову разгромил слывшего абсолютно непобедимым чемпиона Гарри Вардона. Причем разгромил элегантно, стильно и не без чувства юмора.Этой, одной из ярчайших страниц в истории гольфа, названной современниками битвой Давида и Голиафа, и посвящен данный фильм...

Качество: BDRip (источник: / BDRemux / 1080р)
Формат: AVI
Видео кодек: XviD
Аудио кодек: AC3
Видео: 704x384 (1.83:1), 23.976 fps, XviD build 72 ~1945 kbps avg, 0.30 bit/pixel
Аудио#1: русский48 kHz, AC3 Dolby Digital, 2/0 (L,R) ch, ~192 kbps avg (Профессиональный многоголосый, Лицензия)
Аудио#2: английский 48 kHz, AC3 Dolby Digital, 3/2 (L,C,R,l,r) + LFE ch, ~448 kbps avg (Оригинал)
Релиз от





Общее
Полное имя : E:\Торренты\Piratbit\Triumf.avi
Формат : AVI
Формат/Информация : Audio Video Interleave
Профиль формата : OpenDML
Размер файла : 2,18 Гбайт
Продолжительность : 2 ч. 0 м.
Общий поток : 2592 Кбит/сек
Название фильма : Триумф / The Greatest Game Ever Played (2005) BDRip
Режиссёр : sociolog_melvas
Жанр : драма, история, спорт
Программа кодирования : VirtualDubMod 1.5.10.2 (build 2540/release)
Правообладатель : http://hqclub.net/
Примечание : 06.07.2012

Видео
Идентификатор : 0
Формат : MPEG-4 Visual
Профиль формата : Advanced Simple@L5
Параметр BVOP формата : 1
Параметр QPel формата : Нет
Параметр GMC формата : Без точки перехода
Параметр матрицы формата : Выборочная
Идентификатор кодека : XVID
Идентификатор кодека/Подсказка : XviD
Продолжительность : 2 ч. 0 м.
Битрейт : 1934 Кбит/сек
Ширина : 704 пикселя
Высота : 384 пикселя
Соотношение сторон : 1,85:1
Частота кадров : 23,976 кадра/сек
Цветовое пространство : YUV
Субдискретизация насыщенности : 4:2:0
Битовая глубина : 8 бит
Тип развёртки : Прогрессивная
Метод сжатия : С потерями
Бит/(Пиксели*Кадры) : 0.298
Размер потока : 1,63 Гбайт (75%)
Библиотека кодирования : XviD 72

Аудио #1
Идентификатор : 1
Формат : AC-3
Формат/Информация : Audio Coding 3
Расширение режима : CM (complete main)
Параметр Endianness формата : Big
Идентификатор кодека : 2000
Продолжительность : 2 ч. 0 м.
Вид битрейта : Постоянный
Битрейт : 192 Кбит/сек
Каналы : 2 канала
Расположение каналов : Front: L R
Частота : 48,0 КГц
Битовая глубина : 16 бит
Метод сжатия : С потерями
Размер потока : 166 Мбайт (7%)
Выравнивание : Разделение по промежуткам
Продолжительность промежутка : 42 мс. (1,00 видеокадр)
Время предзагрузки промежутка : 500 мс.

Аудио #2
Идентификатор : 2
Формат : AC-3
Формат/Информация : Audio Coding 3
Расширение режима : CM (complete main)
Параметр Endianness формата : Big
Идентификатор кодека : 2000
Продолжительность : 2 ч. 0 м.
Вид битрейта : Постоянный
Битрейт : 448 Кбит/сек
Каналы : 6 каналов
Расположение каналов : Front: L C R, Side: L R, LFE
Частота : 48,0 КГц
Битовая глубина : 16 бит
Метод сжатия : С потерями
Размер потока : 386 Мбайт (17%)
Выравнивание : Разделение по промежуткам
Продолжительность промежутка : 42 мс. (1,00 видеокадр)
Время предзагрузки промежутка : 500 мс.

pb.wtf



Скачать Триумф через торрент http://s017.radikal.ru/i420/1209/40/5ef39ad70dc4.jpg Скачать фильм Триумф через торрент бесплантно в хорошем качестве Описание: Спортивная статистика тщательно регистрирует все рекорды. Но лишь живая память способна сохранить драгоценные мгновения триумфа ... 10 10 5
Info! Золотая раздача, скачанное не засчитывается.
Торрент: Зарегистрирован [2012-09-06 14:57] · скачан: 55 раз
Статус: √ проверено
Размер: 2.18 GB
Как cкачать? Как скачать Триумф через торрент | UTorrent

% Раздел Тема Автор DL S | L
Фильмы [HD 720p, 1080p] (Хороший звук DUB, MVO) [ 13.06 GB ] Триумф / The Greatest Game Ever Played [2005 история BDRip 1080p by msltel] MVO msltel Скачать
1 | 0
Фильмы [HD 720p, 1080p] (Хороший звук DUB, MVO) [ 4.76 GB ] Триумф / The Greatest Game Ever Played [2005 история BDRip 720p by msltel] MVO msltel Скачать
1 | 0
Фильмы 2001-2005 [ 6.72 GB ] Триумф / The Greatest Game Ever Played [2005 история BDRip 720p MVO + Original Eng + Sub Rus Eng] Assasinca Скачать
1 | 0
Фильмы [HD 720p, 1080p] (Хороший звук DUB, MVO) [ 6.72 GB ] Триумф / Greatest Game Ever Played The [2005 история BDRip ] SibFrost Скачать
1 | 0


Последний раз редактировалось: lev1244v (2012-09-06 15:30), всего редактировалось 1 раз

28-11-2019 20:33  

Отключить всю рекламу на сайте

06-09-2012 15:10 Триумф Скачать торрент  

Приятного просмотра!pb.wtf



    Дорогой пользователь! Огромная просьба, поблагодарите релизера, оцените раздачу и оставьте свои комментарий, если Вы скачали Триумф через торрент бесплатно! Внесите свою лепту в развитие PiratBit!
    Комментировать посты могут только пользователи прошедшие не сложную регистрацию
    Показать сообщения:    

    Триумф через торрент
    Скачать бесплатно Триумф
    Триумф скачать торрент
    Триумф смотреть онлайн
    Cкачать фильм Триумф бесплатно
    Триумф скачать торрент в хорошем качестве
    Триумф смотреть онлайн бесплатно в хорошем качестве


    Вы не можете начинать темы
    Вы не можете отвечать на сообщения
    Вы не можете редактировать свои сообщения
    Вы не можете удалять свои сообщения
    Вы не можете голосовать в опросах
    Вы не можете прикреплять файлы к сообщениям
    Вы можете скачивать файлы