1 сезон

3 сезон

iTunes

1

iTunes

MVO

iTunes

13

1 сезон

RePack

30

Deluxe

pack

Лицензия

ВАЖНО

ИГРА 18+

pack

RePack

MK11

RePack

jed

RePack

fifa19

RePack

RDR2

RePack

NEED FOR SPEED™ PAYBACK

4 сезон

9 сезон

Бесстыжие 9 сезон

Все сериалы

все сериалы на PB.wtf

RePack

FAR CRY 5

Anonymous, добрый день, мы катастрофически не успеваем собрать деньги на оплату серверов, помогите нам пожалуйста 5,10,15р., для нас важна любая помощь . В качестве благодарности мы отключим Вам всю рекламу на сайте (укажите свой ник в строку Ваше имя)!

×
  
Magnet ссылка

Цветы войны / The Flowers of War / Jin ling shi san chai (Чжан Имоу / Yimou Zhang) [2011, драма, военный, история, DVD9] R5 pb.wtf

Цветы войны через торрент pb.wtf

Размер: 5.82 GB | Добавлен: 8 лет 10 мес. назад | Торрент скачан:97 раз
Скачать  

06-09-2012 23:40 Цветы войны Скачать торрент  


Цветы войны / The Flowers of War / Jin ling shi san chai
Страна: Китай, Гонконг
Студия: Beijing New Picture Film Co., EDKO Film Ltd., New Picture Company
Жанр: драма, военный, история
Год выпуска: 2011
Мировая премьера: 16 декабря 2011
Российская премьера: 2 августа 2012
Дата выхода DVD: 3 сентября 2012
Продолжительность: 02:16:21
Перевод: Профессиональный (дублированный) [Лицензия]
Cубтитры: нет
Режиссер: Чжан Имоу / Yimou Zhang
В ролях: Кристиан Бэйл, Ни Ни, Синю Чжан, Тяньюань Хуанг, Хань Ситин, Дуду Чжан, Тун Давэй, Ацуро Ватабэ, Цао Кэфань, Юань Яньчунци
Описание: Фильм основан на реальных событиях. Действия разворачиваются в период японо-китайской войны. Главный герой, американский гробовщик Джон, направляется в Католическую церковь в Нанкине, чтобы подготовить священника к похоронам. По прибытию он оказывается единственным мужчиной среди учениц монастыря и проституток из соседнего борделя в эпицентре военных действий. Оказавшись в таком положении, он выдаёт себя за священника и пытается спасти обе группы от ужасов вторжения японской армии…
Бонусы: нет

Релиз группы:
Качество: DVD9 R5
Формат: DVD-Video
Видео кодек: MPEG2
Аудио кодек: AC3
Видео: PAL 16:9 (720x576(0.520)) MPEG Video, 25,000 кадр/сек, 5387 Кбит/сек
Аудио #1: Russian (Dolby AC3, 2 ch) 192 Кбит/сек, 48,0 КГц
Аудио #2: Russian (Dolby AC3, 6 ch) 384 Кбит/сек, 48,0 КГц



Title: Cvety.vojny.2011.DVD9
Size: 5.82 Gb ( 6 099 794,00 KBytes ) - DVD-9
Enabled regions: 1, 2, 3, 4, 5, 6, 7, 8

VTS_01 :
Play Length: 00:00:19
Video: PAL 4:3 (720x576) VBR
Audio:
Russian (Dolby AC3, 2 ch)

VTS_02 :
Play Length: 00:00:02
Video: PAL 16:9 (720x576) VBR, Auto Letterboxed
Audio:
Russian (Dolby AC3, 2 ch)

VTS_03 :
Play Length: 02:16:21
Video: PAL 16:9 (720x576) VBR, Auto Letterboxed
Audio:
Russian (Dolby AC3, 2 ch)
Russian (Dolby AC3, 6 ch)

* Menus Information *

VIDEO_TS Menu
Video:
PAL 4:3 (720x576) VBR
English Language Unit :
Title Menu

VTS_01 Menu
Video:
PAL 4:3 (720x576) VBR
English Language Unit :
Root Menu

VTS_02 Menu
Video:
PAL 16:9 (720x576) VBR
Auto Letterboxed
Audio:
Not specified (Dolby AC3, 2 ch)
English Language Unit :
Root Menu

VTS_03 Menu
Video:
PAL 4:3 (720x576) VBR
English Language Unit :
Root Menu
Chapter (PTT) Menu
Общее
Полное имя : J:\Новинки 2012\Cvety.vojny.2011.DVD9\VIDEO_TS\VTS_03_1.VOB
Формат : MPEG-PS
Размер файла : 1024 Мбайт
Продолжительность : 23 м.
Режим общего битрейта : Переменный
Общий поток : 6084 Кбит/сек

Видео
Идентификатор : 224 (0xE0)
Формат : MPEG Video
Версия формата : Version 2
Профиль формата : Main@Main
Параметр BVOP формата : Да
Параметр матрицы формата : Выборочная
Продолжительность : 23 м.
Вид битрейта : Переменный
Битрейт : 5387 Кбит/сек
Максимальный битрейт : 8000 Кбит/сек
Ширина : 720 пикселей
Высота : 576 пикселей
Соотношение сторон : 16:9
Частота кадров : 25,000 кадров/сек
Стандарт вещания : PAL
Цветовое пространство : YUV
Субдискретизация насыщенности : 4:2:0
Битовая глубина : 8 бит
Тип развёртки : Чересстрочная
Порядок развёртки : Верхнее поле первое
Метод сжатия : С потерями
Бит/(Пиксели*Кадры) : 0.520
Размер потока : 907 Мбайт (89%)

Аудио #1
Идентификатор : 189 (0xBD)-128 (0x80)
Формат : AC-3
Формат/Информация : Audio Coding 3
Расширение режима : CM (complete main)
Параметр Endianness формата : Big
Режим смешивания : DVD-Video
Продолжительность : 23 м.
Вид битрейта : Постоянный
Битрейт : 192 Кбит/сек
Каналы : 2 канала
Расположение каналов : Front: L R
Частота : 48,0 КГц
Битовая глубина : 16 бит
Метод сжатия : С потерями
Размер потока : 32,3 Мбайт (3%)

Аудио #2
Идентификатор : 189 (0xBD)-129 (0x81)
Формат : AC-3
Формат/Информация : Audio Coding 3
Расширение режима : CM (complete main)
Параметр Endianness формата : Big
Режим смешивания : DVD-Video
Продолжительность : 23 м.
Вид битрейта : Постоянный
Битрейт : 384 Кбит/сек
Каналы : 6 каналов
Расположение каналов : Front: L C R, Side: L R, LFE
Частота : 48,0 КГц
Битовая глубина : 16 бит
Метод сжатия : С потерями
Размер потока : 64,6 Мбайт (6%)










pb.wtf



Скачать Цветы войны через торрент http://i42.fastpic.ru/big/2012/0907/df/45f38d8ec92b6a26ab5adae5853876df.jpg Скачать фильм Цветы войны через торрент бесплантно в хорошем качестве Описание: Фильм основан на реальных событиях. Действия разворачиваются в период японо-китайской войны. Главный герой, американский ... 10 10 1
Info! Золотая раздача, скачанное не засчитывается.
Торрент: Зарегистрирован [2012-09-06 23:40] · скачан: 97 раз
Статус: √ проверено
Размер: 5.82 GB
Как cкачать? Как скачать Цветы войны через торрент | UTorrent

28-11-2019 20:33  

Отключить всю рекламу на сайте

22-11-2012 07:12 Цветы войны Скачать торрент  

Отличный фильм. Раздающему спасибо.pb.wtf



    Дорогой пользователь! Огромная просьба, поблагодарите релизера, оцените раздачу и оставьте свои комментарий, если Вы скачали Цветы войны через торрент бесплатно! Внесите свою лепту в развитие PiratBit!
    Комментировать посты могут только пользователи прошедшие не сложную регистрацию
    Показать сообщения:    

    Цветы войны через торрент
    Скачать бесплатно Цветы войны
    Цветы войны скачать торрент
    Цветы войны смотреть онлайн
    Cкачать фильм Цветы войны бесплатно
    Цветы войны скачать торрент в хорошем качестве
    Цветы войны смотреть онлайн бесплатно в хорошем качестве


    Вы не можете начинать темы
    Вы не можете отвечать на сообщения
    Вы не можете редактировать свои сообщения
    Вы не можете удалять свои сообщения
    Вы не можете голосовать в опросах
    Вы не можете прикреплять файлы к сообщениям
    Вы можете скачивать файлы