2 сезон

iTunes

MVO

1

2 сезон

iTunes

iTunes

1 сезон

RePack

30

Ultimate

ВАЖНО

ИГРА 18+

pack

RePack

MK11
pack

Легкие деньги

RePack

jed

RePack

fifa19

RePack

RDR2

RePack

NEED FOR SPEED™ PAYBACK

4 сезон

9 сезон

Бесстыжие 9 сезон

Все сериалы

все сериалы на PB.wtf

RePack

FAR CRY 5

Anonymous, доброй ночи, мы не успеваем собрать деньги на оплату серверов за декабрь и январь, помогите нам пожалуйста в это трудное время. В качестве благодарности мы отключим Вам всю рекламу на сайте (укажите свой ник в строку Ваше имя)!

×
  
Magnet ссылка

[Lady-Sonia] Lady Sonia (Housewife Undressed Outdoors) [07.09.2012 г., Stockings, Outdoors, Masturbation, Jodhpurs, Boots, Gloves, SATRip] pb.wtf

через торрент pb.wtf

Размер: 268 MB | Добавлен: 8 лет 4 мес. назад | Торрент скачан:50 раз
Скачать  

07-09-2012 09:59 Скачать торрент  

[Lady-Sonia.com]
Lady Sonia
Housewife Undressed Outdoors
[07.09.2012 г.]

Имя актрисы: Lady Sonia
Название ролика: Housewife Undressed Outdoors
Подсайт и сайт: Lady-Sonia.com

Год производства: 2012 г.
Жанр: Stockings, Outdoors, Masturbation, Jodhpurs, Boots, Gloves
Продолжительность: 00:20:03

Качество: SATRip
Формат видео: MP4
Видео кодек: AVC
Аудио кодек: AAC
Видео: 25.000 fps, 1 766 Kbps, 720x404
Аудио: 99.8 Kbps, 2 channels, 44.1 KHz

Описание:
Its September and at last the English summer has arrived here so
I thought that it would be fun to get undressed outdoors and have some fun while you watch me...
I have just been riding this morning so I will have to get changed fist but I don't mind if you want to watch?
Ok, lets go somewhere nice and discreet so that I can strip naked for you and show
you EVERY INCH of my body outdoors before I make myself cum VEY hard and loud!
General
Complete name : Housewife Undressed Outdoors.mp4
Format : MPEG-4
Format profile : Base Media
Codec ID : isom
File size : 268 MiB
Duration : 20mn 3s
Overall bit rate mode : Variable
Overall bit rate : 1 870 Kbps
Encoded date : UTC 2012-09-07 09:43:34
Tagged date : UTC 2012-09-07 09:43:34
Writing application : Lavf51.12.1

Video
ID : 1
Format : AVC
Format/Info : Advanced Video Codec
Format profile : Baseline@L3.0
Format settings, CABAC : No
Format settings, ReFrames : 1 frame
Format settings, GOP : M=1, N=12
Codec ID : avc1
Codec ID/Info : Advanced Video Coding
Duration : 20mn 3s
Bit rate mode : Variable
Bit rate : 1 766 Kbps
Maximum bit rate : 2 524 Kbps
Width : 720 pixels
Height : 404 pixels
Display aspect ratio : 16:9
Frame rate mode : Constant
Frame rate : 25.000 fps
Original frame rate : 24.000 fps
Color space : YUV
Chroma subsampling : 4:2:0
Bit depth : 8 bits
Scan type : Progressive
Bits/(Pixel*Frame) : 0.243
Stream size : 253 MiB (94%)
Encoded date : UTC 2012-09-07 09:43:34
Tagged date : UTC 2012-09-07 09:43:34

Audio
ID : 2
Format : AAC
Format/Info : Advanced Audio Codec
Format profile : LC
Codec ID : 40
Duration : 20mn 3s
Bit rate mode : Variable
Bit rate : 99.8 Kbps
Channel(s) : 2 channels
Channel positions : Front: L R
Sampling rate : 44.1 KHz
Compression mode : Lossy
Stream size : 14.3 MiB (5%)
Encoded date : UTC 2012-09-07 09:43:34
Tagged date : UTC 2012-09-07 09:43:34
pb.wtf



pack Скачать через торрент http://i40.fastpic.ru/big/2012/0907/60/1b0d4144eb2fd2a02541f91ea7b56060.jpg Скачать фильм [Lady-Sonia] Lady Sonia через торрент бесплантно в хорошем качестве Описание:Its September and at last the English summer has arrived here soI thought that it would be fun to get undressed outdoors and have ... 5 10 1
Info! Золотая раздача, скачанное не засчитывается.
Торрент: Зарегистрирован [2012-09-07 09:59] · скачан: 50 раз
Статус: √ проверено
Размер: 268 MB
Как cкачать? Как скачать через торрент | UTorrent

28-11-2019 20:33  

Отключить всю рекламу на сайте

    Дорогой пользователь! Огромная просьба, поблагодарите релизера, оцените раздачу и оставьте свои комментарий, если Вы скачали через торрент бесплатно! Внесите свою лепту в развитие PiratBit!
    Комментировать посты могут только пользователи прошедшие не сложную регистрацию
    Показать сообщения:    

    через торрент
    Скачать бесплатно
    скачать торрент
    смотреть онлайн
    Cкачать фильм бесплатно
    скачать торрент в хорошем качестве
    смотреть онлайн бесплатно в хорошем качестве


    Вы не можете начинать темы
    Вы не можете отвечать на сообщения
    Вы не можете редактировать свои сообщения
    Вы не можете удалять свои сообщения
    Вы не можете голосовать в опросах
    Вы не можете прикреплять файлы к сообщениям
    Вы можете скачивать файлы