Ссылка на приватное зеркало нашего сайта всего за 1$. Внимание количество ограничено!!!

2 сезон

iTunes

1 сезон

1

2 сезон

2 сезон

iTunes

1 сезон

RePack

30

Новинка

ВАЖНО

ИГРА 18+

pack

RePack

MK11
pack

Забери бонус

RePack

jed

!!Акция!!

Alien_Rage

RePack

fifa19

RePack

Assassins Creed: Odyssey

RePack

NEED FOR SPEED™ PAYBACK

4 сезон

9 сезон

Бесстыжие 9 сезон

Все сериалы

все сериалы на PB.wtf

RePack

FAR CRY 5
  

Легенда о трех ключах / La legende des 3 clefs (3 серии из 3) (Патрик Девольф) [2007 г., приключения, мини-сериал, DVDRip, MVO, лицензия] pb.wtf

Легенда о трех ключах через торрент pb.wtf

Размер: 4.09 GB | Добавлен: 8 лет 2 мес. назад | Торрент скачан:63 раза
Скачать  

07-09-2012 12:39 Легенда о трех ключах Скачать торрент  

Легенда о трех ключах / La legende des 3 clefs (3 серии из 3)

Год выпуска: 2007
Страна: Франция, Бельгия / Département de la Charente, Fontana, Nelka Films, Région Poitou-Charentes, RTL-TVi, Téva
Жанр: приключения, мини-сериал
Продолжительность: 04:33:03 (3 х ~ 01:31:00)
Перевод: Профессиональный многоголосый, Лицензия
Тип релиза: Лицензия

Режиссер: Патрик Девольф
Продюссер: Nelly Kafsky
Сценарий: Gilbert Sinoue, Жюльен Сарфати, Жан-Венсен Форнье

Бюджет: €6 400 000
Премьера в мире: 4 августа 2007. Швейцария

возраст: 16+

Мировой рейтинг IMDB 6.20 (19)



В ролях: Жюли Гайе, Тьерри Новик, Джули Де Бона, Пол Блэйз, Manon Gaurin, Жюльен Крампон, Жан-Пьер Лори, Даниель Лебрюн, Мишель Дюшоссуа, Вернон Добчефф

Описание: В один день, тринадцать лет назад, в разных семьях родились трое детей. Сейчас они выросли, и выясняется, что у каждого есть свой особый дар: Дэмиан необыкновенно силен в математике, Жюльетт говорит на всех известных языках, а Джимми рисует то, что произойдет в будущем. Объединившись, они могут сделать много полезного. Но внезапно над ними нависает смертельная угроза! Кому-то этот союз очень сильно мешает...

Качество: DVDRip
Формат: AVI
Видео кодек: XviD
Аудио кодек: AC3
Видео: 704x528 (4:3), 25 fps, 2008 kbps, 0.216 bit/pixel
Аудио: 128 kb/s (2ch) 48 kHz







Формат : AVI
Формат/Информация : Audio Video Interleave
Профиль формата : OpenDML
Размер файла : 4,09 Гбайт
Продолжительность : 4 ч. 33 м.
Общий поток : 2145 Кбит/сек
Программа кодирования : VirtualDubMod 1.5.4.1 (build 2178/release)
Библиотека кодирования : VirtualDubMod build 2178/release

Видео
Идентификатор : 0
Формат : MPEG-4 Visual
Профиль формата : Advanced Simple@L5
Параметр BVOP формата : 1
Параметр QPel формата : Нет
Параметр GMC формата : Без точки перехода
Параметр матрицы формата : Выборочная
Идентификатор кодека : XVID
Идентификатор кодека/Подсказка : XviD
Продолжительность : 4 ч. 33 м.
Битрейт : 2008 Кбит/сек
Ширина : 704 пикселя
Высота : 528 пикселей
Соотношение сторон : 4:3
Частота кадров : 25,000 кадров/сек
Цветовое пространство : YUV
Субдискретизация насыщенности : 4:2:0
Битовая глубина : 8 бит
Тип развёртки : Прогрессивная
Метод сжатия : С потерями
Бит/(Пиксели*Кадры) : 0.216
Размер потока : 3,83 Гбайт (94%)
Библиотека кодирования : XviD 64

Аудио
Идентификатор : 1
Формат : AC-3
Формат/Информация : Audio Coding 3
Расширение режима : CM (complete main)
Идентификатор кодека : 2000
Продолжительность : 4 ч. 33 м.
Вид битрейта : Постоянный
Битрейт : 128 Кбит/сек
Каналы : 2 канала
Расположение каналов : Front: L R
Частота : 48,0 КГц
Битовая глубина : 16 бит
Метод сжатия : С потерями
Размер потока : 250 Мбайт (6%)
Выравнивание : Разделение по промежуткам
Продолжительность промежутка : 96 мс. (2,40 видеокадра)
Время предзагрузки промежутка : 96 мс.

pb.wtf



Скачать Легенда о трех ключах через торрент http://i42.fastpic.ru/big/2012/0907/19/0e9c4ef8f587e1a293c5664fdf18a819.jpg Скачать фильм Легенда о трех ключах через торрент бесплантно в хорошем качестве Описание: В один день, тринадцать лет назад, в разных семьях родились трое детей. Сейчас они выросли, и выясняется, что у каждого есть свой ... 5 10 1
Info! Золотая раздача, скачанное не засчитывается.
Торрент: Зарегистрирован [2012-09-07 12:39] · скачан: 63 раз
Статус: √ проверено
Размер: 4.09 GB
Как cкачать? Как скачать Легенда о трех ключах через торрент | qTorrent

28-11-2019 20:33  

Отключить всю рекламу на сайте

07-09-2012 13:32 Легенда о трех ключах Скачать торрент  

спасибо!pb.wtf



    Дорогой пользователь! Огромная просьба, поблагодарите релизера, оцените раздачу и оставьте свои комментарий, если Вы скачали Легенда о трех ключах через торрент бесплатно! Внесите свою лепту в развитие PiratBit!
    Комментировать посты могут только пользователи прошедшие не сложную регистрацию
    Показать сообщения:    

    Легенда о трех ключах через торрент
    Скачать бесплатно Легенда о трех ключах
    Легенда о трех ключах скачать торрент
    Легенда о трех ключах смотреть онлайн
    Cкачать фильм Легенда о трех ключах бесплатно
    Легенда о трех ключах скачать торрент в хорошем качестве
    Легенда о трех ключах смотреть онлайн бесплатно в хорошем качестве


    Вы не можете начинать темы
    Вы не можете отвечать на сообщения
    Вы не можете редактировать свои сообщения
    Вы не можете удалять свои сообщения
    Вы не можете голосовать в опросах
    Вы не можете прикреплять файлы к сообщениям
    Вы можете скачивать файлы