Ссылка на приватное зеркало нашего сайта всего за 1$. Внимание количество ограничено!!!

2 сезон

iTunes

1 сезон

1

iTunes

iTunes

iTunes

1 сезон

RePack

30

ИГРА 18+

pack

ВАЖНО

!!Акция!!

Alien_RageХит недели

RePack

MK11
pack

Забери бонус

RePack

jed

!!Акция!!

Alien_Rage

RePack

fifa19

RePack

Assassins Creed: Odyssey

RePack

NEED FOR SPEED™ PAYBACK

4 сезон

9 сезон

Бесстыжие 9 сезон

Все сериалы

все сериалы на PB.wtf

RePack

FAR CRY 5
  

Смерть шпионам. Скрытый враг (Смертельная схватка) / Сезон: 3 Серии: 1-4 из 4 (Эдуард Пальмов) [2012, военный, DVD9] R5 pb.wtf

Смерть шпионам. Скрытый враг через торрент pb.wtf

Размер: 7.78 GB | Добавлен: 8 лет 1 мес. назад | Торрент скачан:429 раз
Скачать  

07-09-2012 16:33 Смерть шпионам. Скрытый враг Скачать торрент  


Смерть шпионам. Скрытый враг
Страна: Украина, Беларусь
Студия: Беларусьфильм, Стар-медиа
Жанр: военный
Год выпуска: 2012
Мировая премьера: 9 мая 2012
Дата выхода DVD: 6 сентября 2012
Продолжительность: 206 мин.
Перевод: Оригинал [Лицензия]
Cубтитры: нет
Оригинальная аудиодорожка: русский
Режиссер: Эдуард Пальмов
В ролях: Илья Шакунов, Олег Морозов, Денис Бургазлиев, Елена Дудина, Анна Дюкова, Яков Шамшин, Михаил Васьков, Яна Соболевская, Валерий Афанасьев, Алексей Смолка, Владимир Горянский, Артем Волков, Виталий Салий, Юрий Ильин, Валентин Варецкий, Евгений Ефремов, Михаил Жонин, Александр Кобзарь, Вячеслав Соломка, Александр Данильченко, Григорий Боковенко, Александр Андриенко, Полина Пальмова
Описание: 1943 год, на территорию оккупированной Украины немцы забрасывают диверсионную группу, набранную из советских военнопленных. Двое диверсантов — Беляев и Зайцев по собственному желанию сдаются нашей контрразведке, они начинают сотрудничать с Александром Галимовым; остальные — прячутся в лесах. Помимо своей работы Галимов увлечен машинисткой СМЕРШа Любой Липинской, которая немного старше него; в начале войны в бомбежке погиб ее единственный сын.
Советская контрразведка умело начинает вести радиоигру с абвером с помощью сдавшихся для выманивания у немцев боеприпасов и подкрепления. Но все же некто следит за диверсантами, а ночью, проникнув на квартиру медсестры Марьяны Ефимовой, где они квартируются, убивает Беляева — Зайцева Марьяне удается спасти. Тем временем немцы хотят взорвать стратегически важный мост, по которому движутся составы с боеприпасами — в охрану моста внедрён немецкий диверсант…

Бонусы: нет

Релиз группы:
Качество: DVD9 R5
Формат: DVD-Video
Видео кодек: MPEG2
Аудио кодек: AC3
Видео: PAL 16:9 (720x576(0.578)) MPEG Video, 25,000 кадр/сек, 5991 Кбит/сек
Аудио: Russian (Dolby AC3, 2 ch) 192 Кбит/сек, 48,0 КГц



Title: Smert.shpionam.skrytyj.vrag.2012.DVD9
Size: 7.78 Gb ( 8 154 324,00 KBytes ) - DVD-9
Enabled regions: 1, 2, 3, 4, 5, 6, 7, 8

VTS_01 :
Play Length: 00:00:16+03:25:52
Video: PAL 16:9 (720x576) VBR, Auto Letterboxed
Audio:
Russian (Dolby AC3, 2 ch)

* Menus Information *

VIDEO_TS Menu
Video:
NTSC 4:3 (720x480) VBR
Auto Pan&Scan, Auto Letterboxed
Russian Language Unit :
Title Menu

VTS_01 Menu
Video:
PAL 16:9 (720x576) VBR
Auto Letterboxed
Audio:
Not specified (Dolby AC3, 2 ch)
Russian Language Unit :
Root Menu
Chapter (PTT) Menu
Общее
Полное имя : J:\Новинки 2012\Smert.shpionam.skrytyj.vrag.2012.DVD9\VIDEO_TS\VTS_01_1.VOB
Формат : MPEG-PS
Размер файла : 1024 Мбайт
Продолжительность : 22 м.
Режим общего битрейта : Переменный
Общий поток : 6309 Кбит/сек

Видео
Идентификатор : 224 (0xE0)
Формат : MPEG Video
Версия формата : Version 2
Профиль формата : Main@Main
Параметр BVOP формата : Да
Параметр матрицы формата : Выборочная
Продолжительность : 22 м.
Вид битрейта : Переменный
Битрейт : 5991 Кбит/сек
Максимальный битрейт : 8000 Кбит/сек
Ширина : 720 пикселей
Высота : 576 пикселей
Соотношение сторон : 16:9
Частота кадров : 25,000 кадров/сек
Стандарт вещания : PAL
Цветовое пространство : YUV
Субдискретизация насыщенности : 4:2:0
Битовая глубина : 8 бит
Метод сжатия : С потерями
Бит/(Пиксели*Кадры) : 0.578
Размер потока : 972 Мбайт (95%)

Аудио
Идентификатор : 189 (0xBD)-128 (0x80)
Формат : AC-3
Формат/Информация : Audio Coding 3
Расширение режима : CM (complete main)
Параметр Endianness формата : Big
Режим смешивания : DVD-Video
Продолжительность : 22 м.
Вид битрейта : Постоянный
Битрейт : 192 Кбит/сек
Каналы : 2 канала
Расположение каналов : Front: L R
Частота : 48,0 КГц
Битовая глубина : 16 бит
Метод сжатия : С потерями
Задержка видео : -50 мс.
Размер потока : 31,2 Мбайт (3%)










pb.wtf



Скачать Смерть шпионам. Скрытый враг через торрент http://i42.fastpic.ru/big/2012/0907/82/982cb06e57ae7b238e1f1dee7d302482.jpg Скачать фильм Смерть шпионам. Скрытый враг через торрент бесплантно в хорошем качестве Описание: 1943 год, на территорию оккупированной Украины немцы забрасывают диверсионную группу, набранную из советских военнопленных. Двое ... 9.9 10 7
Info! Золотая раздача, скачанное не засчитывается.
Торрент: Зарегистрирован [2012-09-07 16:33] · скачан: 429 раз
Статус: √ проверено
Размер: 7.78 GB
Как cкачать? Как скачать Смерть шпионам. Скрытый враг через торрент | qTorrent

28-11-2019 20:33  

Отключить всю рекламу на сайте

07-09-2012 17:16 Смерть шпионам. Скрытый враг Скачать торрент  

ДВД-рип будет?pb.wtf



17-01-2014 12:53 Смерть шпионам. Скрытый враг Скачать торрент  

с каждым сезоном всё хуже снято....pb.wtf



30-01-2014 21:50 Смерть шпионам. Скрытый враг Скачать торрент  

"...на территорию оккупированной Украины немцы забрасывают диверсионную группу..." - очень люблю аннотации за такие перлы. Если Украина еще окупирована, то зачем забрасывать к себе же разведчиков?pb.wtf



    Дорогой пользователь! Огромная просьба, поблагодарите релизера, оцените раздачу и оставьте свои комментарий, если Вы скачали Смерть шпионам. Скрытый враг через торрент бесплатно! Внесите свою лепту в развитие PiratBit!
    Комментировать посты могут только пользователи прошедшие не сложную регистрацию
    Показать сообщения:    

    Смерть шпионам. Скрытый враг через торрент
    Скачать бесплатно Смерть шпионам. Скрытый враг
    Смерть шпионам. Скрытый враг скачать торрент
    Смерть шпионам. Скрытый враг смотреть онлайн
    Cкачать фильм Смерть шпионам. Скрытый враг бесплатно
    Смерть шпионам. Скрытый враг скачать торрент в хорошем качестве
    Смерть шпионам. Скрытый враг смотреть онлайн бесплатно в хорошем качестве


    Вы не можете начинать темы
    Вы не можете отвечать на сообщения
    Вы не можете редактировать свои сообщения
    Вы не можете удалять свои сообщения
    Вы не можете голосовать в опросах
    Вы не можете прикреплять файлы к сообщениям
    Вы можете скачивать файлы