1 сезон

1 сезон

iTunes

1

КиноПоиск HD

Кинопоиск HD

iTunes

13

1 сезон

RePack

30

Новинка

ВАЖНО

ИГРА 18+

pack

RePack

MK11
pack

Легкие деньги

RePack

jed

RePack

fifa19

RePack

RDR2

RePack

NEED FOR SPEED™ PAYBACK

4 сезон

9 сезон

Бесстыжие 9 сезон

Все сериалы

все сериалы на PB.wtf

RePack

FAR CRY 5
  
Magnet ссылка

Темп / Tempo (Эрик Стайлз) [2003 г., Триллер, мелодрама, криминал, DVDRip, MVO] pb.wtf

Темп через торрент pb.wtf

Размер: 1.37 GB | Добавлен: 8 лет 7 мес. назад | Торрент скачан:28 раз
Скачать  

07-09-2012 19:45 Темп Скачать торрент  


Темп / Tempo

Год выпуска: 2003
Страна: Канада, Франция, Великобритания, Люксембург
Жанр: Триллер, мелодрама, криминал
Продолжительность: 01:22:55
Перевод: Профессиональный многоголосый

Режиссер: Эрик Стайлз

В ролях: Мелани Гриффит, Рэйчел Ли Кук, Хью Дэнси, Малкольм МакДауэлл, Арт Малик, Давид Ла Эй, Дельфин Риш, Сатхерине Бауен, Рита Дейвис, Мишель Альбертини

Описание: Достойная во всех отношениях американка работает в парижском ювелирном магазине. Однажды она знакомится с милой парочкой, но, как оказывается позднее, с большим количеством задних черных мыслей – они готовят ограбление магазина. Тут бы и пресечь порочные поползновения, но все дело в том, что американка не так, что бы молода, а паренек – чудо как хорош…
Доп. информация:


Качество: DVDRip
Формат: AVI
Видео кодек: XviD
Аудио кодек: AC3
Видео: 1905 Кбит/с, 720x384,23,976 fps
Аудио#1: AC3, 6 ch, 448 Кбит/с,48,0 Khz


E:\Movies For Seed\Temp.2003.XviD.DVDRip.avi
General
Complete name : E:\Movies For Seed\Temp.2003.XviD.DVDRip.avi
Format : AVI
Format/Info : Audio Video Interleave
File size : 1.37 GiB
Duration : 1h 22mn
Overall bit rate : 2 362 Kbps
Writing application : VirtualDubMod 1.5.10.2 (build 2540/release)
Writing library : VirtualDubMod build 2540/release
Video #0
ID : 0
Format : MPEG-4 Visual
Format profile : Advanced Simple@L5
Format settings, BVOP : 2
Format settings, QPel : No
Format settings, GMC : No warppoints
Format settings, Matrix : Default (MPEG)
Codec ID : XVID
Codec ID/Hint : XviD
Duration : 1h 22mn
Bit rate : 1 905 Kbps
Width : 720 pixels
Height : 384 pixels
Display aspect ratio : 1.85:1
Frame rate : 23.976 fps
Color space : YUV
Chroma subsampling : 4:2:0
Bit depth : 8 bits
Scan type : Progressive
Compression mode : Lossy
Bits/(Pixel*Frame) : 0.287
Stream size : 1.10 GiB (81%)
Writing library : XviD 1.2.1 (UTC 2008-12-04)
Audio #1
ID : 1
Format : AC-3
Format/Info : Audio Coding 3
Mode extension : CM (complete main)
Format settings, Endianness : Big
Codec ID : 2000
Duration : 1h 22mn
Bit rate mode : Constant
Bit rate : 448 Kbps
Channel(s) : 6 channels
Channel positions : Front: L C R, Side: L R, LFE
Sampling rate : 48.0 KHz
Bit depth : 16 bits
Compression mode : Lossy
Stream size : 266 MiB (19%)
Alignment : Split accross interleaves
Interleave, duration : 42 ms (1.00 video frame)
Interleave, preload duration : 500 ms

pb.wtf



Скачать Темп через торрент http://4.firepic.org/4/images/2012-09/07/k5du78fi21bq.jpg Скачать фильм Темп через торрент бесплантно в хорошем качестве Описание: Достойная во всех отношениях американка работает в парижском ювелирном магазине. Однажды она знакомится с милой парочкой, но, как ... 5 10 1
Info! Золотая раздача, скачанное не засчитывается.
Торрент: Зарегистрирован [2012-09-07 19:45] · скачан: 28 раз
Статус: √ проверено
Размер: 1.37 GB
Как cкачать? Как скачать Темп через торрент | UTorrent

28-11-2019 20:33  

Отключить всю рекламу на сайте

    Дорогой пользователь! Огромная просьба, поблагодарите релизера, оцените раздачу и оставьте свои комментарий, если Вы скачали Темп через торрент бесплатно! Внесите свою лепту в развитие PiratBit!
    Комментировать посты могут только пользователи прошедшие не сложную регистрацию
    Показать сообщения:    

    Темп через торрент
    Скачать бесплатно Темп
    Темп скачать торрент
    Темп смотреть онлайн
    Cкачать фильм Темп бесплатно
    Темп скачать торрент в хорошем качестве
    Темп смотреть онлайн бесплатно в хорошем качестве


    Вы не можете начинать темы
    Вы не можете отвечать на сообщения
    Вы не можете редактировать свои сообщения
    Вы не можете удалять свои сообщения
    Вы не можете голосовать в опросах
    Вы не можете прикреплять файлы к сообщениям
    Вы можете скачивать файлы