1 сезон

1 сезон

iTunes

1

КиноПоиск HD

Кинопоиск HD

iTunes

13

1 сезон

RePack

30

Новинка

ВАЖНО

ИГРА 18+

pack

RePack

MK11
pack

Легкие деньги

RePack

jed

RePack

fifa19

RePack

RDR2

RePack

NEED FOR SPEED™ PAYBACK

4 сезон

9 сезон

Бесстыжие 9 сезон

Все сериалы

все сериалы на PB.wtf

RePack

FAR CRY 5
  
Magnet ссылка

Контроль разума / Control Factor (Нельсон МакКормик) [2003 г., фантастика, боевик, триллер, детектив, DVDRip, MVO, лицензия] pb.wtf

Контроль разума через торрент pb.wtf

Размер: 1.36 GB | Добавлен: 8 лет 7 мес. назад | Торрент скачан:93 раза
Скачать  

08-09-2012 09:55 Контроль разума Скачать торрент  

Контроль разума / Control Factor

Год выпуска: 2003
Страна: США, Канада
Жанр: фантастика, боевик, триллер, детектив
Продолжительность: 01:24:17
Перевод: Профессиональный многоголосый, Лицензия

Режиссер: Нельсон МакКормик
Продюссер: Дерек Раппапорт, Пол М. Леонард, Чак Саймон
Сценарий: John Dombrow

Премьера в мире: 18 января 2003

MPAA: 16+
IMDb: 4.80 (712)
Кинопоиск: 5.229 68

В ролях: Адам Болдуин, Элизабет Беркли, Тони Тодд, Конрад Данн, Джон Невилл, Энн Марин, Питер Спенс

Описание: Угроза прокралась в тихий и безопасный мирок главного героя, как и положено, неожиданно. Ворвавшись в офис страховой компании, безумный посетитель начинает палить из ружья направо и налево, чуть было не убив простого служащего Лэнса Бишопа.

После этого ужасного события, Лэнс стал замечать, что с ним происходят странные вещи. Непонятные мысли лезут в голову, да и сама картина реального мира, до того дня казавшаяся незыблемой, начинает трещать по швам. Главному герою во что бы то ни стало нужно найти невидимого врага, чтобы сразиться с ним за контроль над собственным разумом…

Качество: DVDRip
Формат: AVI
Видео кодек: DivX
Аудио кодек: AC3
Видео: 704x384 (1.83:1), 25 fps, DivX Codec 5.x or 6.x ~1852 kbps avg, 0.27 bit/pixel
Аудио#1: 48 kHz, AC3 Dolby Digital, 3/2 (L,C,R,l,r) + LFE ch, ~448.00 kbps avg










Общее
Полное имя : C:JustlanКонтроль разумаKontrol razuma.avi
Формат : AVI
Формат/Информация : Audio Video Interleave
Размер файла : 1,36 Гбайт
Продолжительность : 1 ч. 24 м.
Общий поток : 2310 Кбит/сек
Программа кодирования : FairUse Wizard
Библиотека кодирования : The best and REALLY easy backup tool

Видео
Идентификатор : 0
Формат : MPEG-4 Visual
Параметр BVOP формата : 1
Параметр QPel формата : Нет
Параметр GMC формата : Без точки перехода
Параметр матрицы формата : Default (H.263)
Режим смешивания : Сжатый битовый поток
Идентификатор кодека : DX50
Идентификатор кодека/Подсказка : DivX 5
Продолжительность : 1 ч. 24 м.
Битрейт : 1853 Кбит/сек
Ширина : 704 пикселя
Высота : 384 пикселя
Соотношение сторон : 16:9
Частота кадров : 25,000 кадров/сек
Цветовое пространство : YUV
Субдискретизация насыщенности : 4:2:0
Битовая глубина : 8 бит
Тип развёртки : Прогрессивная
Метод сжатия : С потерями
Бит/(Пиксели*Кадры) : 0.274
Размер потока : 1,09 Гбайт (80%)
Библиотека кодирования : DivX 6.8.5 (UTC 2009-08-20)

Аудио
Идентификатор : 1
Формат : AC-3
Формат/Информация : Audio Coding 3
Расширение режима : CM (complete main)
Идентификатор кодека : 2000
Продолжительность : 1 ч. 24 м.
Вид битрейта : Постоянный
Битрейт : 448 Кбит/сек
Каналы : 6 каналов
Расположение каналов : Front: L C R, Side: L R, LFE
Частота : 48,0 КГц
Битовая глубина : 16 бит
Метод сжатия : С потерями
Размер потока : 270 Мбайт (19%)
Выравнивание : Разделение по промежуткам
Продолжительность промежутка : 40 мс. (1,00 видеокадр)
Время предзагрузки промежутка : 500 мс.

pb.wtf



Скачать Контроль разума через торрент https://pic.kartinco.top/images/1/6l5qjxqnog.jpg Скачать фильм Контроль разума через торрент бесплантно в хорошем качестве Описание: Угроза прокралась в тихий и безопасный мирок главного героя, как и положено, неожиданно. Ворвавшись в офис страховой компании, ... 5 10 1
Info! Золотая раздача, скачанное не засчитывается.
Торрент: Зарегистрирован [2012-09-08 09:55] · скачан: 93 раз
Статус: √ проверено
Размер: 1.36 GB
Как cкачать? Как скачать Контроль разума через торрент | UTorrent

28-11-2019 20:33  

Отключить всю рекламу на сайте

    Дорогой пользователь! Огромная просьба, поблагодарите релизера, оцените раздачу и оставьте свои комментарий, если Вы скачали Контроль разума через торрент бесплатно! Внесите свою лепту в развитие PiratBit!
    Комментировать посты могут только пользователи прошедшие не сложную регистрацию
    Показать сообщения:    

    Контроль разума через торрент
    Скачать бесплатно Контроль разума
    Контроль разума скачать торрент
    Контроль разума смотреть онлайн
    Cкачать фильм Контроль разума бесплатно
    Контроль разума скачать торрент в хорошем качестве
    Контроль разума смотреть онлайн бесплатно в хорошем качестве


    Вы не можете начинать темы
    Вы не можете отвечать на сообщения
    Вы не можете редактировать свои сообщения
    Вы не можете удалять свои сообщения
    Вы не можете голосовать в опросах
    Вы не можете прикреплять файлы к сообщениям
    Вы можете скачивать файлы