2 сезон

iTunes

MVO

1

2 сезон

iTunes

iTunes

1 сезон

RePack

30

Ultimate

ВАЖНО

ИГРА 18+

pack

RePack

MK11
pack

Легкие деньги

RePack

jed

RePack

fifa19

RePack

RDR2

RePack

NEED FOR SPEED™ PAYBACK

4 сезон

9 сезон

Бесстыжие 9 сезон

Все сериалы

все сериалы на PB.wtf

RePack

FAR CRY 5

Anonymous, доброй ночи, мы не успеваем собрать деньги на оплату серверов за декабрь и январь, помогите нам пожалуйста в это трудное время. В качестве благодарности мы отключим Вам всю рекламу на сайте (укажите свой ник в строку Ваше имя)!

×
  
Magnet ссылка

BBC. Охота за бозоном Хиггса / Horizon: The Hunt for Higgs (Габи Хорнсбай) [2012 г., документальный, HDTVRip 720p, VO] pb.wtf

BBC. Охота за бозоном Хиггса через торрент pb.wtf

Размер: 1.41 GB | Добавлен: 8 лет 4 мес. назад | Торрент скачан:178 раз
Скачать  

09-09-2012 03:31 BBC. Охота за бозоном Хиггса Скачать торрент  

BBC. Охота за бозоном Хиггса / Horizon: The Hunt for Higgs

Год выпуска: 2012
Страна: Великобритания
Студия: BBC, Science Channel Co-production
Жанр: документальный
Продолжительность: 00:59:06
Перевод: Любительский одноголосый

Режиссер: Габи Хорнсбай

Премьера в мире: 9 января 2012

IMDB: 7.5 (11)

Описание: Передача Горизонты Науки проникает за кулисы ЦЕРНа отслеживая одно из самых эпических и дорогих научных исследований всех времен и народов: поиск частиц Хиггса, которые, как полагают, дают массу всем частицам в нашей Вселенной. Тем не менее, охота за бозоном Хиггса является частью гораздо более грандиозных поисков, проясняющих как работает вся Вселенная. Она обещает помочь ответить на такие вопросы как, сама возможность нашего существования, а так же это жизненно важный фрагмент единой теории поля. В основе погони за неуловимыми частицами лежит особенность, которая делает снежинки красивыми и человеческие лица привлекательными: простая и очаровательная идея симметрии всего сущего...

Качество: HDTVRip 720p
Формат: MKV
Видео кодек: AVC
Аудио кодек: MP3
Видео: 3098 Кбит/сек, 1280 х 720 (16:9), 25,000 кадров/сек, Бит/Пиксели: 0.134
Аудио#1: 256 Кбит/сек, 2 канала, 44,1 КГц
Формат : Matroska
Версия формата : Version 2
Размер файла : 1,41 Гбайт
Продолжительность : 59 м.
Общий поток : 3422 Кбит/сек
Дата кодирования : UTC 2012-09-08 08:48:21
Программа кодирования : mkvmerge v3.4.0 ('Rapunzel') сборка от May 15 2010 09:38:20
Библиотека кодирования : libebml v0.8.0 + libmatroska v0.9.0

Видео
Идентификатор : 1
Формат : AVC
Формат/Информация : Advanced Video Codec
Профиль формата : High@L4.1
Параметр CABAC формата : Да
Параметр ReFrames формата : 6 кадров
Идентификатор кодека : V_MPEG4/ISO/AVC
Продолжительность : 59 м.
Битрейт : 3098 Кбит/сек
Ширина : 1280 пикселей
Высота : 720 пикселей
Соотношение сторон : 16:9
Режим частоты кадров : Постоянный
Частота кадров : 25,000 кадров/сек
Цветовое пространство : YUV
Субдискретизация насыщенности : 4:2:0
Битовая глубина : 8 бит
Тип развёртки : Прогрессивная
Бит/(Пиксели*Кадры) : 0.134
Размер потока : 1,28 Гбайт (91%)
Библиотека кодирования : x264 core 120 r2120 0c7dab9
Настройки программы : cabac=1 / ref=6 / deblock=1:0:0 / analyse=0x3:0x113 / me=umh / subme=9 / psy=1 / psy_rd=1.00:0.00 / mixed_ref=1 / me_range=24 / chroma_me=1 / trellis=1 / 8x8dct=1 / cqm=0 / deadzone=21,11 / fast_pskip=0 / chroma_qp_offset=-2 / threads=3 / sliced_threads=0 / nr=0 / decimate=1 / interlaced=0 / bluray_compat=0 / constrained_intra=0 / bframes=3 / b_pyramid=2 / b_adapt=1 / b_bias=0 / direct=1 / weightb=1 / open_gop=0 / weightp=2 / keyint=150 / keyint_min=15 / scenecut=40 / intra_refresh=0 / rc_lookahead=40 / rc=crf / mbtree=1 / crf=18.0 / qcomp=0.60 / qpmin=0 / qpmax=69 / qpstep=4 / ip_ratio=1.40 / aq=1:1.00
Язык : English
Default : Да
Forced : Нет

Аудио
Идентификатор : 2
Формат : MPEG Audio
Версия формата : Version 1
Профиль формата : Layer 3
Идентификатор кодека : A_MPEG/L3
Идентификатор кодека/Подсказка : MP3
Продолжительность : 59 м.
Вид битрейта : Постоянный
Битрейт : 256 Кбит/сек
Каналы : 2 канала
Частота : 44,1 КГц
Метод сжатия : С потерями
Размер потока : 108 Мбайт (7%)
Заголовок : Электронный голос
Язык : Russian
Default : Да
Forced : Нет

pb.wtf



Скачать BBC. Охота за бозоном Хиггса через торрент http://pic.kartinco.top/images/1/fza6kiympy.png Скачать фильм BBC. Охота за бозоном Хиггса через торрент бесплантно в хорошем качестве Описание: Передача Горизонты Науки проникает за кулисы ЦЕРНа отслеживая одно из самых эпических и дорогих научных исследований всех времен ... 10 10 1
Info! Золотая раздача, скачанное не засчитывается.
Торрент: Зарегистрирован [2012-09-09 03:31] · скачан: 178 раз
Статус: √ проверено
Размер: 1.41 GB
Как cкачать? Как скачать BBC. Охота за бозоном Хиггса через торрент | UTorrent

28-11-2019 20:33  

Отключить всю рекламу на сайте


09-09-2012 04:32 BBC. Охота за бозоном Хиггса Скачать торрент  

спасибоpb.wtf



13-09-2012 09:31 BBC. Охота за бозоном Хиггса Скачать торрент  

хотел посмотреть, но послушав первые пару минут перевода...pb.wtf



    Дорогой пользователь! Огромная просьба, поблагодарите релизера, оцените раздачу и оставьте свои комментарий, если Вы скачали BBC. Охота за бозоном Хиггса через торрент бесплатно! Внесите свою лепту в развитие PiratBit!
    Комментировать посты могут только пользователи прошедшие не сложную регистрацию
    Показать сообщения:    

    BBC. Охота за бозоном Хиггса через торрент
    Скачать бесплатно BBC. Охота за бозоном Хиггса
    BBC. Охота за бозоном Хиггса скачать торрент
    BBC. Охота за бозоном Хиггса смотреть онлайн
    Cкачать фильм BBC. Охота за бозоном Хиггса бесплатно
    BBC. Охота за бозоном Хиггса скачать торрент в хорошем качестве
    BBC. Охота за бозоном Хиггса смотреть онлайн бесплатно в хорошем качестве


    Вы не можете начинать темы
    Вы не можете отвечать на сообщения
    Вы не можете редактировать свои сообщения
    Вы не можете удалять свои сообщения
    Вы не можете голосовать в опросах
    Вы не можете прикреплять файлы к сообщениям
    Вы можете скачивать файлы