MEGA SALE -50% FORZA HORIZON 4 ULTIMATE+ВСЕ DLC+ОНЛАЙН всего за 599р. 299 руб. (супер цена). Внимание количество ограничено!!!

iTunes

1+1

iTunes

мы

iTunes

1

iTunes

Чернобыль

1 сезон

Ральф против интернета

Лицензия

ПШазам

Лицензия

Игра престолов

Лицензия

30
pack

ВАЖНО

!!Акция!!

Alien_RageХит недели

RePack

Resident Evil 21

ИГРА 18+

pack

RePack

Metro:Exodus

!!Акция!!

Alien_Rage

RePack

fifa19

RePack

Assassins Creed: Odyssey

RePack

NEED FOR SPEED™ PAYBACK

3 сезон

9 сезон

Бесстыжие 9 сезон

Все сериалы

все сериалы на PB.wtf

RePack

FAR CRY 5
Ребята, катастрофически не хватает 7730р. для оплаты серверов за ИЮЛЬ (всвязи с блокировками трафик упал в 3 раза), 1-2р., выручайте.
  

Грэйс / Grace (Паул Солет /Paul Solet) [2009 г., Ужасы, триллер, драма, BDRip ] MVO + Eng pb.wtf

Грэйс через торрент pb.wtf

Размер: 1.46 GB | Добавлен: 6 лет 11 мес. назад | Торрент скачан:71 раз
Скачать  

09-09-2012 12:58 Грэйс Скачать торрент  

Грэйс / Grace

Год выпуска: 2009
Страна: США, Канада
Жанр: Ужасы, триллер, драма
Продолжительность: 01:25:30
Перевод:Профессиональный ( Двухголосый студия ХИТ)
Режиссер: Паул Солет /Paul Solet
Бюджет: $5 000 000
Премьера в мире: 16 января 2009
В ролях: Джордан Лэдд, Габриель Роз, Саманта Феррис, Малкольм Стюарт, Стефен Парк, Серж Уд, Шелли Гант
Описание:
Семейная пара, Мэделайн и Майкл Матесон в течение многих лет безуспешно пытается завести ребенка, и вот наконец ей удается забеременеть и выносить плод семь с половиной месяцев. Увы, вскоре после этого происходит ужасный несчастный случай, в результате которого гибнут Майкл и — нерожденный еще младенец. Мэделайн все равно решает рожать, пускай даже и мертвый плод. Спустя две недели она получает свое мертвое дитя. И вот тут начинается самое страшное.
Ребенок — не совсем мертв! Мать возвращает его к жизни и нарекает ребенка именем Грейс (в переводе с английского — «Изящество»). Мэделайн забирает дитя к себе в дом, но тут младенцу становится хуже — выпадают волосы, съеживается кожа… Не доверяя традиционной медицине, Мэделайн вновь кормит ребенка грудью — но сама неожиданно падает в обморок. Мать понимает, что Грейс голодна, но сама она кормить ее не сможет, ведь — Грейс не пьет молоко, она будет пить… кровь! И теперь Мэделайн должна решить — способна ли она в прямом смысле убить человека, чтобы прокормить своего ребенка?
Качество: BDRip
Формат: AVI
Видео кодек: XviD
Аудио кодек: AC3
Видео: 720x304 (2.37:1), 23.976 fps, XviD MPEG-4 ~1787 kbps avg, 0.34 bit/pixel
Аудио#1: 48 kHz, AC3 Dolby Digital, 3/2 (L,C,R,l,r) + LFE ch, ~448.00 kbps avg |Russian|
Аудио#2: 48 kHz, AC3 Dolby Digital, 2/0 (L,R) ch, ~192.00 kbps avg |English|





Общее
Полное имя : D:\Торенты\Grace.2009.avi
Формат : AVI
Формат/Информация : Audio Video Interleave
Размер файла : 1,46 Гбайт
Продолжительность : 1 ч. 25 м.
Общий поток : 2437 Кбит/сек
Название фильма : Грэйс / Grace
Режиссёр : zim2001
Программа кодирования : VirtualDubMod 1.5.10.2 (build 2540/release)
Правообладатель : torrents.ru

Видео
Идентификатор : 0
Формат : MPEG-4 Visual
Профиль формата : Advanced Simple@L5
Параметр BVOP формата : 1
Параметр QPel формата : Нет
Параметр GMC формата : Без точки перехода
Параметр матрицы формата : Выборочная
Идентификатор кодека : XVID
Идентификатор кодека/Подсказка : XviD
Продолжительность : 1 ч. 25 м.
Битрейт : 1788 Кбит/сек
Ширина : 720 пикс.
Высота : 304 пикс.
Соотношение сторон : 2,35:1
Частота кадров : 23,976 кадр/сек
Цветовое пространство : YUV
Подвыборка цветности : 4:2:0
Битовая глубина : 8 бит
Тип развёртки : Прогрессивная
Метод сжатия : С потерями
Бит/(Пиксели*Кадры) : 0.341
Размер потока : 1,07 Гбайт (73%)
Библиотека кодирования : XviD 1.2.1 (UTC 2008-12-04)

Аудио #1
Идентификатор : 1
Формат : AC-3
Формат/Информация : Audio Coding 3
Расширение режима : CM (complete main)
Идентификатор кодека : 2000
Продолжительность : 1 ч. 24 м.
Вид битрейта : Постоянный
Битрейт : 448 Кбит/сек
Каналы : 6 каналов
Расположение каналов : Front: L C R, Side: L R, LFE
Частота : 48,0 КГц
Битовая глубина : 16 бит
Метод сжатия : С потерями
Задержка видео : 1 с. 0 мс.
Размер потока : 271 Мбайт (18%)
Выравнивание : Разделение по промежуткам
Продолжительность промежутка : 42 мс. (1,01 видеокадр)
Время предзагрузки промежутка : 500 ms

Аудио #2
Идентификатор : 2
Формат : AC-3
Формат/Информация : Audio Coding 3
Расширение режима : CM (complete main)
Идентификатор кодека : 2000
Продолжительность : 1 ч. 25 м.
Вид битрейта : Постоянный
Битрейт : 192 Кбит/сек
Каналы : 2 канала
Расположение каналов : Front: L R
Частота : 48,0 КГц
Битовая глубина : 16 бит
Метод сжатия : С потерями
Размер потока : 117 Мбайт (8%)
Выравнивание : Разделение по промежуткам
Продолжительность промежутка : 42 мс. (1,00 видеокадр)
Время предзагрузки промежутка : 500 ms

pb.wtf



Скачать Грэйс через торрент http://i43.fastpic.ru/big/2012/0909/0d/3bf3ac27ea68941324ba1ed34e6a290d.png Скачать фильм Грэйс через торрент бесплантно в хорошем качестве Описание: Семейная пара, Мэделайн и Майкл Матесон в течение многих лет безуспешно пытается завести ребенка, и вот наконец ей удается ... 10 10 1
Info! Золотая раздача, скачанное не засчитывается.
Торрент: Зарегистрирован [2012-09-09 12:58] · скачан: 71 раз
Статус: √ проверено
Размер: 1.46 GB
Как cкачать? Как скачать Грэйс через торрент | qTorrent


>> Регистрируемся здесь <<






Отзывы и комментарии о схеме читаем и пишем здесь: ---> Отзывы и комментарии о схеме

Новые благодарочки в телеграм довольных пользователей:
скриншот   скриншот   скриншот   скриншот   скриншот

09-09-2012 13:03 Грэйс Скачать торрент  

брр ужасный фильм. 10 минут не выдержал и удалил..))pb.wtf



09-09-2012 15:41 Грэйс Скачать торрент  

akcent7 писал(а):

брр ужасный фильм. 10 минут не выдержал и удалил..))

такой страшный или такой треш?)pb.wtf



09-09-2012 22:31 Грэйс Скачать торрент  

просто фильм неочем)))pb.wtf



    Дорогой пользователь! Огромная просьба, поблагодарите релизера, оцените раздачу и оставьте свои комментарий, если Вы скачали Грэйс через торрент бесплатно! Внесите свою лепту в развитие PiratBit!
    Комментировать посты могут только пользователи прошедшие не сложную регистрацию
    Показать сообщения:    

    Грэйс через торрент
    Скачать бесплатно Грэйс
    Грэйс скачать торрент
    Грэйс смотреть онлайн
    Cкачать фильм Грэйс бесплатно
    Грэйс скачать торрент в хорошем качестве
    Грэйс смотреть онлайн бесплатно в хорошем качестве


    Вы не можете начинать темы
    Вы не можете отвечать на сообщения
    Вы не можете редактировать свои сообщения
    Вы не можете удалять свои сообщения
    Вы не можете голосовать в опросах
    Вы не можете прикреплять файлы к сообщениям
    Вы можете скачивать файлы