Ссылка на приватное зеркало нашего сайта всего за 1$. Внимание количество ограничено!!!

2 сезон

iTunes

1 сезон

1

2 сезон

2 сезон

iTunes

1 сезон

RePack

30

Ultimate

ВАЖНО

ИГРА 18+

pack

RePack

MK11
pack

Забери бонус

RePack

jed

!!Акция!!

Alien_Rage

RePack

fifa19

RePack

Assassins Creed: Odyssey

RePack

NEED FOR SPEED™ PAYBACK

4 сезон

9 сезон

Бесстыжие 9 сезон

Все сериалы

все сериалы на PB.wtf

RePack

FAR CRY 5
  

Однажды со мной (Леонид Фомин) [2012 г., Драма, семейный, SATRip] pb.wtf

Однажды со мной через торрент pb.wtf

Размер: 743 MB | Добавлен: 7 лет 8 мес. назад | Торрент скачан:19 раз
Скачать  

10-09-2012 13:47 Однажды со мной Скачать торрент  

Однажды со мной
«Кино для тех, у кого любви много, и у кого её нет...»

Год выпуска: 2012
Страна: Россия
Жанр: Драма, семейный
Продолжительность: 01:20:11
Субтитры: Нет

Режиссер: Леонид Фомин

В ролях: Юрис Лауциньш, Евгений Филичкин, Эльвира Волошина, Маша Фомина, Екатерина Бестужева, Александра Николаева, Александр Бобров и другие.

Описание: Десятилетний мальчик Коля неожиданно впервые знакомится со своим отцом. Отец и сын обретут друг друга, преодолев многие преграды, как внутри себя, так и на жизненном пути.

Сэмпл: http://multi-up.com/758796

Качество: SATRip
Формат: AVI
Видео кодек: XviD
Аудио кодек: MP3
Видео: 720x400 (1.80:1), 25 fps, XviD build 50 ~1157 kbps avg, 0.16 bit/pixel
Аудио: 48 kHz, MPEG Layer 3, 2 ch, ~128.00 kbps avg
Общее
Полное имя : D:\Рип\Odnagdy_so_mnoj_700.avi
Формат : AVI
Формат/Информация : Audio Video Interleave
Размер файла : 743 Мбайт
Продолжительность : 1 ч. 20 м.
Общий поток : 1295 Кбит/сек
Программа кодирования : VirtualDubMod 1.5.10.3 | www.virtualdub-fr.org || (build 2550/release)
Библиотека кодирования : VirtualDubMod build 2550/release

Видео
Идентификатор : 0
Формат : MPEG-4 Visual
Профиль формата : Advanced Simple@L5
Параметр BVOP формата : 1
Параметр QPel формата : Нет
Параметр GMC формата : Без точки перехода
Параметр матрицы формата : Default (MPEG)
Идентификатор кодека : XVID
Идентификатор кодека/Подсказка : XviD
Продолжительность : 1 ч. 20 м.
Битрейт : 1158 Кбит/сек
Ширина : 720 пикселей
Высота : 400 пикселей
Соотношение сторон : 16:9
Частота кадров : 25,000 кадров/сек
Цветовое пространство : YUV
Субдискретизация насыщенности : 4:2:0
Битовая глубина : 8 бит
Тип развёртки : Прогрессивная
Метод сжатия : С потерями
Бит/(Пиксели*Кадры) : 0.161
Размер потока : 664 Мбайт (89%)
Библиотека кодирования : XviD 1.2.1 (UTC 2008-12-04)

Аудио
Идентификатор : 1
Формат : MPEG Audio
Версия формата : Version 1
Профиль формата : Layer 3
Идентификатор кодека : 55
Идентификатор кодека/Подсказка : MP3
Продолжительность : 1 ч. 20 м.
Вид битрейта : Постоянный
Битрейт : 128 Кбит/сек
Каналы : 2 канала
Частота : 48,0 КГц
Метод сжатия : С потерями
Размер потока : 73,4 Мбайт (10%)
Выравнивание : Соединение по промежуткам
Продолжительность промежутка : 40 мс. (1,00 видеокадр)
Время предзагрузки промежутка : 504 мс.
Библиотека кодирования : LAME3.98r
Настройки программы : -m s -V 4 -q 2 -lowpass 17 -b 128
pb.wtf



Скачать Однажды со мной через торрент http://i43.fastpic.ru/big/2012/0910/b5/34eb8ab1fbbba7d0fdbd6a0d10963db5.jpeg Скачать фильм Однажды со мной через торрент бесплантно в хорошем качестве Описание: Десятилетний мальчик Коля неожиданно впервые знакомится со своим отцом. Отец и сын обретут друг друга, преодолев многие преграды, ... 5 10 1
Info! Золотая раздача, скачанное не засчитывается.
Торрент: Зарегистрирован [2013-03-25 16:32] · скачан: 19 раз
Статус: √ проверено
Размер: 743 MB
Как cкачать? Как скачать Однажды со мной через торрент | qTorrent

% Раздел Тема Автор DL S | L
Наши новые фильмы 2012 [ 1.36 GB ] Однажды со мной [2012 Мело мюзикл SATRip] -=Cherry=- Скачать
1 | 0

28-11-2019 20:33  

Отключить всю рекламу на сайте

10-09-2012 14:00 Однажды со мной Скачать торрент  

Было же уже,поиск юзай.
И это TVRip же.
SATRip -=Cherry=- выкладывал.pb.wtf



10-09-2012 14:24 Однажды со мной Скачать торрент  

soprano писал(а):

Было же уже,поиск юзай.

Юзайте
Мы пока не знакомы и водку не пили.

soprano писал(а):

И это TVRip же.

Это 700 и рип мой, в качестве SATRip

soprano писал(а):

SATRip -=Cherry=- выкладывал.

И не выкладывал, а выкладывала :ad:pb.wtf





Последний раз редактировалось: Oдин 777 (2012-09-10 14:35), всего редактировалось 1 раз

10-09-2012 14:35 Однажды со мной Скачать торрент  

Oдин 777 писал(а):

Мы пока не знакомы.

Так будем

Oдин 777 писал(а):

И не выкладывал, а выкладывала :ad:

Буду знать

Примите мои извенения! pb.wtf



10-09-2012 14:36 Однажды со мной Скачать торрент  

soprano писал(а):

Oдин 777 писал(а):

Мы пока не знакомы.

Так будем

Oдин 777 писал(а):

И не выкладывал, а выкладывала :ad:

Буду знать

Примите мои извенения!

Согласен pb.wtf



    Дорогой пользователь! Огромная просьба, поблагодарите релизера, оцените раздачу и оставьте свои комментарий, если Вы скачали Однажды со мной через торрент бесплатно! Внесите свою лепту в развитие PiratBit!
    Комментировать посты могут только пользователи прошедшие не сложную регистрацию
    Показать сообщения:    

    Однажды со мной через торрент
    Скачать бесплатно Однажды со мной
    Однажды со мной скачать торрент
    Однажды со мной смотреть онлайн
    Cкачать фильм Однажды со мной бесплатно
    Однажды со мной скачать торрент в хорошем качестве
    Однажды со мной смотреть онлайн бесплатно в хорошем качестве


    Вы не можете начинать темы
    Вы не можете отвечать на сообщения
    Вы не можете редактировать свои сообщения
    Вы не можете удалять свои сообщения
    Вы не можете голосовать в опросах
    Вы не можете прикреплять файлы к сообщениям
    Вы можете скачивать файлы