Ссылка на приватное зеркало нашего сайта всего за 1$. Внимание количество ограничено!!!

2 сезон

iTunes

1 сезон

1

2 сезон

2 сезон

iTunes

1 сезон

RePack

30

Ultimate

ВАЖНО

ИГРА 18+

pack

RePack

MK11
pack

Забери бонус

RePack

jed

!!Акция!!

Alien_Rage

RePack

fifa19

RePack

Assassins Creed: Odyssey

RePack

NEED FOR SPEED™ PAYBACK

4 сезон

9 сезон

Бесстыжие 9 сезон

Все сериалы

все сериалы на PB.wtf

RePack

FAR CRY 5
  

Личное дело майора Баранова (Роман Просвирнин) [2012 г., Криминальная комедия, SATRip] pb.wtf

Личное дело майора Баранова через торрент pb.wtf

Размер: 745 MB | Добавлен: 7 лет 8 мес. назад | Торрент скачан:25 раз
Скачать  

10-09-2012 17:17 Личное дело майора Баранова Скачать торрент  

Личное дело майора Баранова

Год выпуска: 2012
Страна: Россия / Кинокомпания "Русское"
Жанр: Криминальная комедия
Продолжительность: 01:35:20
Субтитры: Нет

Режиссер: Роман Просвирнин

В ролях: Алексей Макаров, Мария Миронова (II), Леонид Громов, Дмитрий Зеничев, Сергей Гусинский, Нина Есина, Андрей Селиванов, Валерий Афанасьев, Максим Юдин, Татьяна Кузнецова, Алена Криг, Михаил Богдасаров и другие.

Описание: Майор Баранов, профессионал с непростым характером, за излишнее рвение отстранен от службы и мается на мелких подработках. Неожиданно ему предлагают поучаствовать в операции по разоблачению опасного преступника, сбежавшего из тюрьмы. И всё бы хорошо, но в деле оказывается слишком много подводных камней: майору придётся ехать в маленький городок, устроиться воспитателем в детский сад, да еще и вести расследование под руководством женщины...

Сэмпл: http://multi-up.com/758871

Качество: SATRip
Формат: AVI
Видео кодек: XviD
Аудио кодек: MP3
Видео: 688x384 (1.79:1), 25 fps, XviD build 50 ~954 kbps avg, 0.14 bit/pixel
Аудио: 48 kHz, MPEG Layer 3, 2 ch, ~128.00 kbps avg
Общее
Полное имя : D:\Lichnoe_delo_mayora_Baranova_2012_700.avi
Формат : AVI
Формат/Информация : Audio Video Interleave
Размер файла : 745 Мбайт
Продолжительность : 1 ч. 35 м.
Общий поток : 1093 Кбит/сек
Программа кодирования : VirtualDubMod 1.5.10.3 | www.virtualdub-fr.org || (build 2550/release)
Библиотека кодирования : VirtualDubMod build 2550/release

Видео
Идентификатор : 0
Формат : MPEG-4 Visual
Профиль формата : Advanced Simple@L5
Параметр BVOP формата : 1
Параметр QPel формата : Нет
Параметр GMC формата : Без точки перехода
Параметр матрицы формата : Default (MPEG)
Идентификатор кодека : XVID
Идентификатор кодека/Подсказка : XviD
Продолжительность : 1 ч. 35 м.
Битрейт : 955 Кбит/сек
Ширина : 688 пикселей
Высота : 384 пикселя
Соотношение сторон : 16:9
Частота кадров : 25,000 кадров/сек
Цветовое пространство : YUV
Субдискретизация насыщенности : 4:2:0
Битовая глубина : 8 бит
Тип развёртки : Прогрессивная
Метод сжатия : С потерями
Бит/(Пиксели*Кадры) : 0.145
Размер потока : 651 Мбайт (87%)
Библиотека кодирования : XviD 1.2.1 (UTC 2008-12-04)

Аудио
Идентификатор : 1
Формат : MPEG Audio
Версия формата : Version 1
Профиль формата : Layer 3
Идентификатор кодека : 55
Идентификатор кодека/Подсказка : MP3
Продолжительность : 1 ч. 35 м.
Вид битрейта : Постоянный
Битрейт : 128 Кбит/сек
Каналы : 2 канала
Частота : 48,0 КГц
Метод сжатия : С потерями
Размер потока : 87,3 Мбайт (12%)
Выравнивание : Соединение по промежуткам
Продолжительность промежутка : 40 мс. (1,00 видеокадр)
Время предзагрузки промежутка : 504 мс.
Библиотека кодирования : LAME3.98r
Настройки программы : -m s -V 4 -q 2 -lowpass 17 -b 128
pb.wtf



Скачать Личное дело майора Баранова через торрент http://3.firepic.org/3/images/2012-09/10/znb7edtlc4tg.jpg Скачать фильм Личное дело майора Баранова через торрент бесплантно в хорошем качестве Описание: Майор Баранов, профессионал с непростым характером, за излишнее рвение отстранен от службы и мается на мелких подработках. ... 10 10 2
Info! Золотая раздача, скачанное не засчитывается.
Торрент: Зарегистрирован [2013-03-25 16:31] · скачан: 25 раз
Статус: √ проверено
Размер: 745 MB
Как cкачать? Как скачать Личное дело майора Баранова через торрент | qTorrent

% Раздел Тема Автор DL S | L
Наши новые фильмы 2012 [ 1.12 GB ] Личное дело майора Баранова [2012 SATRip] -=Cherry=- Скачать
1 | 0

28-11-2019 20:33  

Отключить всю рекламу на сайте

    Дорогой пользователь! Огромная просьба, поблагодарите релизера, оцените раздачу и оставьте свои комментарий, если Вы скачали Личное дело майора Баранова через торрент бесплатно! Внесите свою лепту в развитие PiratBit!
    Комментировать посты могут только пользователи прошедшие не сложную регистрацию
    Показать сообщения:    

    Личное дело майора Баранова через торрент
    Скачать бесплатно Личное дело майора Баранова
    Личное дело майора Баранова скачать торрент
    Личное дело майора Баранова смотреть онлайн
    Cкачать фильм Личное дело майора Баранова бесплатно
    Личное дело майора Баранова скачать торрент в хорошем качестве
    Личное дело майора Баранова смотреть онлайн бесплатно в хорошем качестве


    Вы не можете начинать темы
    Вы не можете отвечать на сообщения
    Вы не можете редактировать свои сообщения
    Вы не можете удалять свои сообщения
    Вы не можете голосовать в опросах
    Вы не можете прикреплять файлы к сообщениям
    Вы можете скачивать файлы