1 сезон

1 сезон

iTunes

1

КиноПоиск HD

Кинопоиск HD

iTunes

13

1 сезон

RePack

30

Ultimate

ВАЖНО

ИГРА 18+

pack

RePack

MK11
pack

Легкие деньги

RePack

jed

RePack

fifa19

RePack

RDR2

RePack

NEED FOR SPEED™ PAYBACK

4 сезон

9 сезон

Бесстыжие 9 сезон

Все сериалы

все сериалы на PB.wtf

RePack

FAR CRY 5
  
Magnet ссылка

Тринадцать привидений / Thir13en Ghosts (Стив Бек) [2001 г., ужасы, триллер, детектив, BDRip, Профессиональный (многоголосый закадровый - Карусель) + AVO (одноголосый закадровый) (А. Гаврилов) + Оригинал (ENG)] pb.wtf

Тринадцать привидений через торрент pb.wtf

Размер: 1.46 GB | Добавлен: 8 лет 7 мес. назад | Торрент скачан:194 раза
Скачать  

11-09-2012 16:55 Тринадцать привидений Скачать торрент  


Тринадцать привидений / Thir13en Ghosts
Год выпуска: 2001
Страна: США, Канада
Жанр: ужасы, триллер, детектив
Продолжительность: 01:30:49
Перевод: Профессиональный (многоголосый закадровый - Карусель) + Авторский (одноголосый закадровый) (А. Гаврилов) + Оригинал (Английский)

Режиссер: Стив Бек

В ролях: Тони Шэлуб, Эмбет Дэвидц, Мэттью Лиллард, Шеннон Элизабет, Алек Робертс, ДжейАр Борн, Ра Дигга, Ф. Мюррэй Абрахам, Мэттью Харрисон, Джейкоб Рапп

Описание: После смерти своего странного дядюшки Сайруса, Артур Критикос унаследовал его не менее странный дом. В этом причудливом здании все стены и пол из стекла, украшенного латинскими заклинаниями. В этом доме автоматические двери живут своей жизнью, открываясь и закрываясь в ритме, недоступном человеческому пониманию.
Не сразу Артур поймет, что, переступив порог этого жуткого особняка, он исполнит злую волю Сайруса и освободит дюжину мстительных призраков, обитающих в подвале. И тогда энергия духов приведет в действие агрегат, открывающий путь ко всей мощи потустороннего мира. Но для этого нужно, чтобы к черному зодиаку двенадцати привидений присоединилось еще одно…
Доп. информация:


Качество: BDRip
Формат: AVI
Видео кодек: XviD
Аудио кодек: AC3
Видео: 720x400 (1.80:1), 23.976 fps, XviD MPEG-4 ~1320 kbps avg, 0.19 bit/pixel
Аудио#1: 48 kHz, AC3 Dolby Digital, 3/2 (L,C,R,l,r) + LFE ch, ~384 kbps
Аудио#2: 48 kHz, AC3 Dolby Digital, 3/2 (L,C,R,l,r) + LFE ch, ~384 kbps
Аудио#3: 48 kHz, AC3 Dolby Digital, 2/0 (L,R) ch, ~192 kbps


E:\Movies For Seed\Thir13en Ghosts.2001.BDRip.avi
General
Complete name : E:\Movies For Seed\Thir13en Ghosts.2001.BDRip.avi
Format : AVI
Format/Info : Audio Video Interleave
File size : 1.46 GiB
Duration : 1h 30mn
Overall bit rate : 2 301 Kbps
Movie name : Òðèíàäöàòü ïðèâèäåíèé / Thir13en Ghosts (2001) BDRip
Writing application : VirtualDubModRus 1.5.10.2 (build 2542/release)
Writing library : VirtualDubMod build 2542/release
Copyright : rip by Rulya74
Video #0
ID : 0
Format : MPEG-4 Visual
Format profile : Advanced Simple@L5
Format settings, BVOP : 4
Format settings, QPel : No
Format settings, GMC : No warppoints
Format settings, Matrix : Default (H.263)
Muxing mode : Packed bitstream
Codec ID : XVID
Codec ID/Hint : XviD
Duration : 1h 30mn
Bit rate : 1 322 Kbps
Width : 720 pixels
Height : 400 pixels
Display aspect ratio : 16:9
Frame rate : 23.976 fps
Color space : YUV
Chroma subsampling : 4:2:0
Bit depth : 8 bits
Scan type : Progressive
Compression mode : Lossy
Bits/(Pixel*Frame) : 0.191
Stream size : 859 MiB (57%)
Writing library : XviD 1.2.1 (UTC 2008-12-04)
Audio #1
ID : 1
Format : AC-3
Format/Info : Audio Coding 3
Mode extension : CM (complete main)
Format settings, Endianness : Big
Codec ID : 2000
Duration : 1h 30mn
Bit rate mode : Constant
Bit rate : 384 Kbps
Channel(s) : 6 channels
Channel positions : Front: L C R, Side: L R, LFE
Sampling rate : 48.0 KHz
Bit depth : 16 bits
Compression mode : Lossy
Stream size : 249 MiB (17%)
Alignment : Split accross interleaves
Interleave, duration : 42 ms (1.00 video frame)
Interleave, preload duration : 500 ms
Audio #2
ID : 2
Format : AC-3
Format/Info : Audio Coding 3
Mode extension : CM (complete main)
Format settings, Endianness : Big
Codec ID : 2000
Duration : 1h 30mn
Bit rate mode : Constant
Bit rate : 384 Kbps
Channel(s) : 6 channels
Channel positions : Front: L C R, Side: L R, LFE
Sampling rate : 48.0 KHz
Bit depth : 16 bits
Compression mode : Lossy
Stream size : 249 MiB (17%)
Alignment : Split accross interleaves
Interleave, duration : 42 ms (1.00 video frame)
Interleave, preload duration : 500 ms
Audio #3
ID : 3
Format : AC-3
Format/Info : Audio Coding 3
Mode extension : CM (complete main)
Format settings, Endianness : Big
Codec ID : 2000
Duration : 1h 30mn
Bit rate mode : Constant
Bit rate : 192 Kbps
Channel(s) : 2 channels
Channel positions : Front: L R
Sampling rate : 48.0 KHz
Bit depth : 16 bits
Compression mode : Lossy
Stream size : 125 MiB (8%)
Alignment : Split accross interleaves
Interleave, duration : 42 ms (1.00 video frame)
Interleave, preload duration : 500 ms

pb.wtf



Скачать Тринадцать привидений через торрент http://2.firepic.org/2/images/2012-09/09/dtde8hu4tmtp.png Скачать фильм Тринадцать привидений через торрент бесплантно в хорошем качестве Описание: После смерти своего странного дядюшки Сайруса, Артур Критикос унаследовал его не менее странный дом. В этом причудливом здании ... 10 10 5
Info! Золотая раздача, скачанное не засчитывается.
Торрент: Зарегистрирован [2012-09-11 16:55] · скачан: 194 раз
Статус: √ проверено
Размер: 1.46 GB
Как cкачать? Как скачать Тринадцать привидений через торрент | UTorrent

% Раздел Тема Автор DL S | L
Фильмы [HD 720p, 1080p] (Хороший звук DUB, MVO) [ 13.88 GB ] Тринадцать привидений / Thir13en Ghosts [2001 BDRip 720p DUB лицензия] Ke$h@ Скачать
1 | 0
Фильмы [HD 720p, 1080p] (Хороший звук DUB, MVO) [ 13.88 GB ] Тринадцать привидений / Thir13en Ghosts [2001 BDRip 1080p ] DUB + 4xMVO + 2xAVO + Original + Sub Ворон Скачать
1 | 0
Фильмы 2001-2005 [ 1.37 GB ] Тринадцать привидений / Thir13en Ghosts [2001 DVDRip] F.U. Скачать
1 | 0
Фильмы [HD 720p, 1080p] (Хороший звук DUB, MVO) [ 4.66 GB ] Тринадцать привидений / Thir13en Ghosts [2001 BDRip 720p] NarutoSasuke Скачать
1 | 1

28-11-2019 20:33  

Отключить всю рекламу на сайте

11-09-2012 17:16 Тринадцать привидений Скачать торрент  

четкий фильмец и спецэффекты для 2001г. на высотеpb.wtf



    Дорогой пользователь! Огромная просьба, поблагодарите релизера, оцените раздачу и оставьте свои комментарий, если Вы скачали Тринадцать привидений через торрент бесплатно! Внесите свою лепту в развитие PiratBit!
    Комментировать посты могут только пользователи прошедшие не сложную регистрацию
    Показать сообщения:    

    Тринадцать привидений через торрент
    Скачать бесплатно Тринадцать привидений
    Тринадцать привидений скачать торрент
    Тринадцать привидений смотреть онлайн
    Cкачать фильм Тринадцать привидений бесплатно
    Тринадцать привидений скачать торрент в хорошем качестве
    Тринадцать привидений смотреть онлайн бесплатно в хорошем качестве


    Вы не можете начинать темы
    Вы не можете отвечать на сообщения
    Вы не можете редактировать свои сообщения
    Вы не можете удалять свои сообщения
    Вы не можете голосовать в опросах
    Вы не можете прикреплять файлы к сообщениям
    Вы можете скачивать файлы