1 сезон

1 сезон

iTunes

1

КиноПоиск HD

Кинопоиск HD

iTunes

13

1 сезон

RePack

30

Ultimate

ВАЖНО

ИГРА 18+

pack

RePack

MK11
pack

Легкие деньги

RePack

jed

RePack

fifa19

RePack

RDR2

RePack

NEED FOR SPEED™ PAYBACK

4 сезон

9 сезон

Бесстыжие 9 сезон

Все сериалы

все сериалы на PB.wtf

RePack

FAR CRY 5
  
Magnet ссылка

Сорокалетний девственник [Расширенная версия] / The 40 Year Old Virgin [UNRATED] (Джудд Апатоу) [2005 г., мелодрама, комедия, BDRip AVC , MVO, лицензия] pb.wtf

Сорокалетний девственник через торрент pb.wtf

Размер: 2.22 GB | Добавлен: 8 лет 7 мес. назад | Торрент скачан:168 раз
Скачать  

11-09-2012 17:35 Сорокалетний девственник Скачать торрент  

Сорокалетний девственник / The 40 Year Old Virgin

Год выпуска: 2005
Страна: США
Жанр: мелодрама, комедия
Продолжительность: 116 мин. / 01:56
Перевод: Профессиональный многоголосый, Лицензия

Режиссер: Джудд Апатоу
Продюссер: Джудд Апатоу, Стив Карелл, Эндрю Дж. Коэн,
Сценарий: Джудд Апатоу, Стив Карелл

Бюджет: $26 000 000
Премьера в мире: 11 августа 2005





В ролях: Стив Карелл, Кэтрин Кинер, Пол Радд, Романи Малко, Сет Роген, Элизабет Бэнкс, Лесли Манн, Джейн Линч, Джерри Бедноб, Шелли Мэлил

Описание: 40-летний Энди Стицер добился в жизни многого. У него непыльная и хорошо оплачиваемая работенка в магазине по продаже электронной бытовой техники, хорошие друзья, а также милая квартирка, в которой находится гордость Энди — коллекция игрушечных героев и комиксов. Однако его жизнь лишена простых человеческих радостей, которые доступны большинству людей его возраста. Дело в том, что у Энди никогда не было секса.

Его приятели и коллеги относятся к этому по-разному. Одни считают Энди чудаком, другие же лезут из кожи вон, чтобы помочь ему наверстать упущенное. Но все напрасно. Ничто не может заставить их друга расстаться с девственностью, пока он не встречает 40-летнюю Триш, мать троих детей. Друзья Энди начинают с нетерпением ждать «счастливого события», однако вскоре они с ужасом узнают, что новоявленная парочка решила построить свои взаимоотношения на полном отказе от секса.

Доп. информация: Около 15 минут материала пришлось удалить из финальной версии фильма, чтобы избежать получения рейтинга NC-17 (самый жесткий рейтинг из ныне существующих, как правило, администрация кинотеатров предпочитает не связываться с такими картинами).
Съемка сцены, в которой Энди удаляют волосы на груди, потребовала присутствия пяти камер. Актер Стив Карел, посовещавшись с режиссером, принял решение обойтись без спецэффектов и прочих примочек, и на самом деле удалить волосы. «Сцена должна выглядеть по-настоящему, зритель почувствует подвох, если мы попытаемся схалявить, и не будет смеяться». Логично, что сцена была отснята с одного дубля

Качество: BDRip AVC
Формат: MKV
Видео кодек: H.264
Аудио кодек: AC3
Видео: MPEG4 Video (H264) 1280x688 23.976fps, 2 007 Kbps
Аудио#1: Dolby AC3 48000Hz 6ch(Russian)
скриншот   скриншот   скриншот   скриншот   скриншот   скриншот  





General
Unique ID : 210111676626122456684955670469723179637 (0x9E120976BB8BA411B9F35AE76C5E4A75)
Format : Matroska
Format version : Version 2
File size : 2.22 GiB
Duration : 2h 12mn
Overall bit rate mode : Variable
Overall bit rate : 2 401 Kbps
Movie name : Rip by Romeo [NOLIMITS-TEAM.RU]
Encoded date : UTC 2010-09-19 10:47:20
Writing application : mkvmerge v3.0.0 ('Hang up your Hang-Ups') built on Dec 12 2009 15:20:35
Writing library : libebml v0.7.9 + libmatroska v0.8.1

Video
ID : 1
Format : AVC
Format/Info : Advanced Video Codec
Format profile : High@L4.1
Format settings, CABAC : Yes
Format settings, ReFrames : 3 frames
Codec ID : V_MPEG4/ISO/AVC
Duration : 2h 12mn
Bit rate mode : Variable
Bit rate : 2 007 Kbps
Maximum bit rate : 17.5 Mbps
Width : 1 280 pixels
Height : 688 pixels
Display aspect ratio : 1.860
Frame rate : 23.976 fps
Color space : YUV
Chroma subsampling : 4:2:0
Bit depth : 8 bits
Scan type : Progressive
Bits/(Pixel*Frame) : 0.095
Stream size : 1.82 GiB (82%)
Title : Сорокалетний девственник [Расширенная версия].[nolimits-team.ru]
Writing library : x264 core 104 r1713 c276662
Encoding settings : cabac=1 / ref=1 / deblock=1:0:0 / analyse=0x3:0x3 / me=dia / subme=1 / psy=1 / psy_rd=0.00:0.00 / mixed_ref=0 / me_range=16 / chroma_me=1 / trellis=0 / 8x8dct=1 / cqm=0 / deadzone=21,11 / fast_pskip=1 / chroma_qp_offset=0 / threads=6 / sliced_threads=0 / slices=4 / nr=0 / decimate=1 / interlaced=0 / constrained_intra=0 / bframes=3 / b_pyramid=1 / b_adapt=1 / b_bias=0 / direct=1 / weightb=1 / open_gop=0 / weightp=0 / keyint=24 / keyint_min=1 / scenecut=40 / intra_refresh=0 / rc_lookahead=0 / rc=abr / mbtree=0 / bitrate=2007 / ratetol=1.0 / qcomp=0.60 / qpmin=0 / qpmax=51 / qpstep=4 / vbv_maxrate=17500 / vbv_bufsize=14500 / ip_ratio=1.10 / pb_ratio=1.10 / aq=1:1.00 / nal_hrd=vbr
Language : English
Default : Yes
Forced : No

Audio
ID : 2
Format : AC-3
Format/Info : Audio Coding 3
Mode extension : CM (complete main)
Codec ID : A_AC3
Duration : 2h 12mn
Bit rate mode : Constant
Bit rate : 384 Kbps
Channel(s) : 6 channels
Channel positions : Front: L C R, Side: L R, LFE
Sampling rate : 48.0 KHz
Bit depth : 16 bits
Compression mode : Lossy
Stream size : 364 MiB (16%)
Title : Профессиональный (полное дублирование)
Language : Russian
Default : Yes
Forced : No

pb.wtf



Скачать Сорокалетний девственник через торрент https://pic.kartinco.top/images/1/swnev28fct.jpg Скачать фильм Сорокалетний девственник [Расширенная версия] через торрент бесплантно в хорошем качестве Описание: 40-летний Энди Стицер добился в жизни многого. У него непыльная и хорошо оплачиваемая работенка в магазине по продаже электронной ... 10 10 3
Info! Золотая раздача, скачанное не засчитывается.
Торрент: Зарегистрирован [2012-09-11 17:35] · скачан: 168 раз
Статус: √ проверено
Размер: 2.22 GB
Как cкачать? Как скачать Сорокалетний девственник через торрент | UTorrent

28-11-2019 20:33  

Отключить всю рекламу на сайте

11-09-2012 18:25 Сорокалетний девственник Скачать торрент  

И ЗАЧЕМ ТОГДА В "ШАПКЕ" ПИСАТЬ-РАСШИРЕННАЯ ВЕРСИЯ!!!!!!???????? pb.wtf



11-09-2012 18:46 Сорокалетний девственник Скачать торрент  

Интересно.pb.wtf



10-02-2013 11:16 Сорокалетний девственник Скачать торрент  

где раздача?? аууу!pb.wtf



01-08-2013 09:15 Сорокалетний девственник Скачать торрент  

комедия супер,качайте,смотрите,не пожалеете.pb.wtf



    Дорогой пользователь! Огромная просьба, поблагодарите релизера, оцените раздачу и оставьте свои комментарий, если Вы скачали Сорокалетний девственник через торрент бесплатно! Внесите свою лепту в развитие PiratBit!
    Комментировать посты могут только пользователи прошедшие не сложную регистрацию
    Показать сообщения:    

    Сорокалетний девственник через торрент
    Скачать бесплатно Сорокалетний девственник
    Сорокалетний девственник скачать торрент
    Сорокалетний девственник смотреть онлайн
    Cкачать фильм Сорокалетний девственник бесплатно
    Сорокалетний девственник скачать торрент в хорошем качестве
    Сорокалетний девственник смотреть онлайн бесплатно в хорошем качестве


    Вы не можете начинать темы
    Вы не можете отвечать на сообщения
    Вы не можете редактировать свои сообщения
    Вы не можете удалять свои сообщения
    Вы не можете голосовать в опросах
    Вы не можете прикреплять файлы к сообщениям
    Вы можете скачивать файлы