Всегда рабочее зеркало без VPN и Proxy просто перед .vidak.icu напиши любое слово или цифру, Пример http://p6cg.vidak.icu

MVO

MVO

1 сезон

1

1 сезон

iTunes

1 сезон

13

1 сезон

Deluxe

pack

Рекомендуем

Repack

30

ВАЖНО

RePack

MK11

RePack

jed

RePack

fifa19

RePack

RDR2

RePack

NEED FOR SPEED™ PAYBACK

Кинопоиск HD

6 сезон

 Острые козырьки 6 сезон

Все сериалы

все сериалы на PB.wtf

RePack

FAR CRY 5
  
Magnet ссылка

Микрополис / Micropolis (Чабо Бардос / Chabo Bardos) [2011 г., мультфильм, DVDRip, MVO, лицензия] pb.wtf

Микрополис через торрент pb.wtf

Размер: 1.46 GB | Добавлен: 9 лет назад | Торрент скачан:203 раза
Смотреть онлайн Микрополис | Скачать    Ребята, помогите собрать деньги на оплату серверов!!!

11-09-2012 20:03 Микрополис Скачать торрент  

Микрополис / Micropolis

Год выпуска: 2011
Страна: Канада / Wyvern Images
Жанр: мультфильм
Продолжительность: 01:20:02
Перевод: Профессиональный многоголосый, Лицензия
Тип релиза: Лицензия

Режиссер: Чабо Бардос / Chabo Bardos
Продюссер: Габор Колтай
Сценарий: Ричард Салинджер

В ролях: неизвестно...

Релиз на DVD: 24 мая 2012



Описание: В сказочном королевстве грызунов Микрополис живет забавный и скромный мангуст Рафии. Однажды судьба сталкивает его с местной знаменитостью красавицей Онин. Они влюбляются друг в друга. Но счастливую жизнь обитателей королевства нарушает Раскал, кровожадный лидер племени землероек, решивший уничтожить всех жителей-мангустов и захватить Влacть в Королевстве. После безуспешных попыток прекратить войну, только настоящая любовь и мужество Рафии и Онин способны восстановить мир.

Качество: DVDRip [Исходник: DVD5 R5]
Формат: AVI
Видео кодек: XviD
Аудио кодек: AC3
Видео: 720x400 (16:9), 25 fps, 2213 kbps avg, 0.307 bit/pixel
Аудио: 384 kb/s (6 ch) 48 kHz





Формат : AVI
Формат/Информация : Audio Video Interleave
Размер файла : 1,46 Гбайт
Продолжительность : 1 ч. 20 м.
Общий поток : 2606 Кбит/сек
Программа кодирования : VirtualDubMod 1.5.10.3 | www.virtualdub-fr.org || (build 2550/release)
Библиотека кодирования : VirtualDubMod build 2550/release
Видео
Идентификатор : 0
Формат : MPEG-4 Visual
Профиль формата : Advanced [email protected]
Параметр BVOP формата : 1
Параметр QPel формата : Нет
Параметр GMC формата : Без точки перехода
Параметр матрицы формата : Выборочная
Идентификатор кодека : XVID
Идентификатор кодека/Подсказка : XviD
Продолжительность : 1 ч. 20 м.
Битрейт : 2213 Кбит/сек
Ширина : 720 пикселей
Высота : 400 пикселей
Соотношение сторон : 16:9
Частота кадров : 25,000 кадров/сек
Цветовое пространство : YUV
Субдискретизация насыщенности : 4:2:0
Битовая глубина : 8 бит
Тип развёртки : Прогрессивная
Метод сжатия : С потерями
Бит/(Пиксели*Кадры) : 0.307
Размер потока : 1,24 Гбайт (85%)
Библиотека кодирования : XviD 64
Аудио
Идентификатор : 1
Формат : AC-3
Формат/Информация : Audio Coding 3
Расширение режима : CM (complete main)
Параметр Endianness формата : Big
Идентификатор кодека : 2000
Продолжительность : 1 ч. 20 м.
Вид битрейта : Постоянный
Битрейт : 384 Кбит/сек
Каналы : 5 каналов
Расположение каналов : Front: L C R, Side: L R
Частота : 48,0 КГц
Битовая глубина : 16 бит
Метод сжатия : С потерями
Размер потока : 220 Мбайт (15%)
Выравнивание : Разделение по промежуткам
Продолжительность промежутка : 40 мс. (1,00 видеокадр)
Время предзагрузки промежутка : 500 мс

pb.wtf



Скачать Микрополис через торрент http://i43.fastpic.ru/big/2012/0912/ee/6578610d720b91fdc6653bf4e35557ee.jpg Скачать, смотреть онлайн Микрополис бесплантно в хорошем качестве Описание: В сказочном королевстве грызунов Микрополис живет забавный и скромный мангуст Рафии. Однажды судьба сталкивает его с местной ... 5 10 1
Info! Золотая раздача, скачанное не засчитывается.
Торрент: Зарегистрирован [2012-09-11 20:03] · скачан: 203 раз
Статус: √ проверено
Размер: 1.46 GB
Как cкачать? Как скачать Микрополис через торрент | UTorrent



Последний раз редактировалось: makarevich (2012-09-11 20:14), всего редактировалось 1 раз

28-11-2019 20:33  

Отключить вcю реклaмy на сайте

11-09-2012 20:11 Микрополис Скачать торрент  

Напиши что в ролях не известно кто Роли озвучивает.pb.wtf



11-09-2012 20:16 Микрополис Скачать торрент  

SD
написал по своему pb.wtf



11-09-2012 20:22 Микрополис Скачать торрент  

makarevich писал(а):

SD
написал по своему

благодарюpb.wtf



12-09-2012 07:03 Микрополис Скачать торрент  

Как мульт?pb.wtf



12-09-2012 12:32 Микрополис Скачать торрент  

Если честно 3/10pb.wtf



    Дорогой пользователь! Огромная просьба, поблагодарите релизера, оцените раздачу и оставьте свои комментарий, если Вы скачали Микрополис через торрент бесплатно!
    Комментировать посты могут только пользователи прошедшие не сложную регистрацию
    Показать сообщения:    

    Микрополис через торрент
    Скачать бесплатно Микрополис
    Микрополис скачать торрент
    Микрополис смотреть онлайн
    Cкачать фильм Микрополис бесплатно
    Микрополис скачать торрент в хорошем качестве
    Микрополис смотреть онлайн бесплатно в хорошем качестве


    Вы не можете начинать темы
    Вы не можете отвечать на сообщения
    Вы не можете редактировать свои сообщения
    Вы не можете удалять свои сообщения
    Вы не можете голосовать в опросах
    Вы не можете прикреплять файлы к сообщениям
    Вы можете скачивать файлы