1 сезон

3 сезон

iTunes

1

Line

MVO

iTunes

13

1 сезон

RePack

30

Deluxe

pack

Лицензия

ВАЖНО

ИГРА 18+

pack

RePack

MK11

RePack

jed

RePack

fifa19

RePack

RDR2

RePack

NEED FOR SPEED™ PAYBACK

4 сезон

9 сезон

Бесстыжие 9 сезон

Все сериалы

все сериалы на PB.wtf

RePack

FAR CRY 5

Anonymous, доброй ночи, мы катастрофически не успеваем собрать деньги на оплату серверов, помогите нам пожалуйста 5,10,15р., для нас важна любая помощь . В качестве благодарности мы отключим Вам всю рекламу на сайте (укажите свой ник в строку Ваше имя)!

×
  
Magnet ссылка

В ритме сердца / Sur le rythme (Шарль Оливье-Мишо / Charles-Olivier Michaud) [2011, мелодрама, DVD9] R5 pb.wtf

В ритме сердца через торрент pb.wtf

Размер: 4.65 GB | Добавлен: 8 лет 10 мес. назад | Торрент скачан:54 раза
Скачать  

11-09-2012 20:58 В ритме сердца Скачать торрент  


В ритме сердца / Sur le rythme
«'Грязные танцы' нового поколения»
Страна: Канада
Студия: Gaèa Films
Жанр: мелодрама
Год выпуска: 2011
Мировая премьера: 12 августа 2011
Российская премьера: 9 августа 2012
Продолжительность: 01:29:06
Перевод: Профессиональный (дублированный) [Лицензия]
Cубтитры: нет
Оригинальная аудиодорожка: французский
Режиссер: Шарль Оливье-Мишо / Charles-Olivier Michaud
В ролях: Милен Сен-Совер, Нико Аршамбо, Френс Кастель, Марина Орсини, Пол Дусе, Алексия Гурд, Лина Росслер, Дави Бойсверт, Дэнни Амарал Де Матос
Описание: Дельфина — студентка престижного колледжа из хорошей семьи. Марк не знает своего отца, зато хорошо знаком с законами улиц и легко сведет с ума любую девушку. Она мечтает стать профессиональным танцором. Без него не обходится ни одна зажигательная дискотека города. Им предстоит вместе пройти кастинг и выиграть участие в мировом турне с одним из лучших танцевальных шоу! Колледж заброшен, родители — не в курсе, лучшая подруга — соперница по кастингу и влюблена в Марка, но все это не важно, потому что главное — это сделать самый лучший танец и победить!
Бонусы: нет

Релиз группы:
Качество: DVD9 R5
Формат: DVD-Video
Видео кодек: MPEG2
Аудио кодек: AC3
Видео: PAL 16:9 (720x576(0.531)) MPEG Video, 25,000 кадр/сек, 5508 Кбит/сек
Аудио #1: Russian (Dolby AC3, 6 ch) 448 Кбит/сек, 48,0 КГц
Аудио #2: Russian (Dolby AC3, 2 ch) 192 Кбит/сек, 48,0 КГц
Аудио #3: French (Dolby AC3, 6 ch) 448 Кбит/сек, 48,0 КГц



Title: V.ritme.serdca.2011.DVD9
Size: 4.65 Gb ( 4 871 980,00 KBytes ) - DVD-9
Enabled regions: 1, 2, 3, 4, 5, 6, 7, 8

VTS_01 :
Play Length: 00:00:25+{00:00:25}+{00:00:25}
Video: PAL 4:3 (720x576) VBR
Audio:
Russian (Dolby AC3, 6 ch)
English (Dolby AC3, 6 ch)
English (Dolby AC3, 6 ch)

VTS_02 :
Play Length: 01:29:06
Video: PAL 16:9 (720x576) VBR, Auto Pan&Scan, Auto Letterboxed
Audio:
Russian (Dolby AC3, 6 ch)
Russian (Dolby AC3, 2 ch)
Francais (Dolby AC3, 6 ch)

* Menus Information *

VIDEO_TS Menu
Video:
PAL 4:3 (720x576) VBR
English Language Unit :
Title Menu

VTS_01 Menu
Video:
PAL 4:3 (720x576) VBR
Audio:
Not specified (Dolby AC3, 2 ch)
English Language Unit :
Root Menu
Chapter (PTT) Menu

VTS_02 Menu
Video:
PAL 4:3 (720x576) VBR
English Language Unit :
Root Menu
Audio Menu
Chapter (PTT) Menu
Общее
Полное имя : J:\Новинки 2012\V.ritme.serdca.2011.DVD9\VIDEO_TS\VTS_02_1.VOB
Формат : MPEG-PS
Размер файла : 1024 Мбайт
Продолжительность : 21 м.
Режим общего битрейта : Переменный
Общий поток : 6730 Кбит/сек

Видео
Идентификатор : 224 (0xE0)
Формат : MPEG Video
Версия формата : Version 2
Профиль формата : Main@Main
Параметр BVOP формата : Да
Параметр матрицы формата : Выборочная
Параметр GOP формата : M=3, N=12
Продолжительность : 21 м.
Вид битрейта : Переменный
Битрейт : 5508 Кбит/сек
Максимальный битрейт : 6762 Кбит/сек
Ширина : 720 пикселей
Высота : 576 пикселей
Соотношение сторон : 16:9
Частота кадров : 25,000 кадров/сек
Стандарт вещания : PAL
Цветовое пространство : YUV
Субдискретизация насыщенности : 4:2:0
Битовая глубина : 8 бит
Тип развёртки : Прогрессивная
Метод сжатия : С потерями
Бит/(Пиксели*Кадры) : 0.531
Размер потока : 838 Мбайт (82%)
Основные цвета : BT.470-2 System B, BT.470-2 System G
Характеристики трансфера : BT.470-2 System B, BT.470-2 System G
Коэффициенты матрицы : SMPTE 170M

Аудио #1
Идентификатор : 189 (0xBD)-128 (0x80)
Формат : AC-3
Формат/Информация : Audio Coding 3
Расширение режима : CM (complete main)
Параметр Endianness формата : Big
Режим смешивания : DVD-Video
Продолжительность : 21 м.
Вид битрейта : Постоянный
Битрейт : 448 Кбит/сек
Каналы : 6 каналов
Расположение каналов : Front: L C R, Side: L R, LFE
Частота : 48,0 КГц
Битовая глубина : 16 бит
Метод сжатия : С потерями
Размер потока : 68,1 Мбайт (7%)

Аудио #2
Идентификатор : 189 (0xBD)-129 (0x81)
Формат : AC-3
Формат/Информация : Audio Coding 3
Расширение режима : CM (complete main)
Параметр Endianness формата : Big
Режим смешивания : DVD-Video
Продолжительность : 21 м.
Вид битрейта : Постоянный
Битрейт : 192 Кбит/сек
Каналы : 2 канала
Расположение каналов : Front: L R
Частота : 48,0 КГц
Битовая глубина : 16 бит
Метод сжатия : С потерями
Размер потока : 29,2 Мбайт (3%)

Аудио #3
Идентификатор : 189 (0xBD)-130 (0x82)
Формат : AC-3
Формат/Информация : Audio Coding 3
Расширение режима : CM (complete main)
Параметр Endianness формата : Big
Режим смешивания : DVD-Video
Продолжительность : 21 м.
Вид битрейта : Постоянный
Битрейт : 448 Кбит/сек
Каналы : 6 каналов
Расположение каналов : Front: L C R, Side: L R, LFE
Частота : 48,0 КГц
Битовая глубина : 16 бит
Метод сжатия : С потерями
Размер потока : 68,1 Мбайт (7%)










pb.wtf



Скачать В ритме сердца через торрент http://i41.fastpic.ru/big/2012/0911/06/68b257c32c583083b8f0f652ea052006.jpg Скачать фильм В ритме сердца через торрент бесплантно в хорошем качестве Описание: Дельфина — студентка престижного колледжа из хорошей семьи. Марк не знает своего отца, зато хорошо знаком с законами улиц и легко ... 5 10 1
Info! Золотая раздача, скачанное не засчитывается.
Торрент: Зарегистрирован [2012-09-11 20:58] · скачан: 54 раз
Статус: √ проверено
Размер: 4.65 GB
Как cкачать? Как скачать В ритме сердца через торрент | UTorrent

28-11-2019 20:33  

Отключить всю рекламу на сайте

11-09-2012 21:32 В ритме сердца Скачать торрент  

а скорость-то где?pb.wtf



    Дорогой пользователь! Огромная просьба, поблагодарите релизера, оцените раздачу и оставьте свои комментарий, если Вы скачали В ритме сердца через торрент бесплатно! Внесите свою лепту в развитие PiratBit!
    Комментировать посты могут только пользователи прошедшие не сложную регистрацию
    Показать сообщения:    

    В ритме сердца через торрент
    Скачать бесплатно В ритме сердца
    В ритме сердца скачать торрент
    В ритме сердца смотреть онлайн
    Cкачать фильм В ритме сердца бесплатно
    В ритме сердца скачать торрент в хорошем качестве
    В ритме сердца смотреть онлайн бесплатно в хорошем качестве


    Вы не можете начинать темы
    Вы не можете отвечать на сообщения
    Вы не можете редактировать свои сообщения
    Вы не можете удалять свои сообщения
    Вы не можете голосовать в опросах
    Вы не можете прикреплять файлы к сообщениям
    Вы можете скачивать файлы