Ссылка на приватное зеркало нашего сайта всего за 1$. Внимание количество ограничено!!!

2 сезон

iTunes

iTunes

1

iTunes

iTunes

iTunes

WEBRip

iTunes

30
pack

Вам бонус

ВАЖНО

!!Акция!!

Alien_RageХит недели

RePack

Horizon Zero Dawn

ИГРА 18+

pack

RePack

jed

!!Акция!!

Alien_Rage

RePack

fifa19

RePack

Assassins Creed: Odyssey

RePack

NEED FOR SPEED™ PAYBACK

4 сезон

9 сезон

Бесстыжие 9 сезон

Все сериалы

все сериалы на PB.wtf

RePack

FAR CRY 5
  

Пьер Вудман оттрахал молодую девушку на кастинге / Kasting-Budapest-Hungary (Пьер Вудман / Pierre Woodman) [2011 г., Kasting, All Sex, Oral, Anal, SiteRip] pb.wtf

Пьер Вудман оттрахал молодую девушку на кастинге через торрент pb.wtf

Качают: 2 [ 0 KB/s ]
Размер: 163 MB | Добавлен: 8 лет назад | Торрент скачан:1775 раз
Скачать  

12-09-2012 08:01 Пьер Вудман оттрахал молодую девушку на кастинге Скачать торрент  



Пьер Вудман оттрахал молодую девушку в попку и в рот на кастинге / Kasting-Budapest-Hungary

Год выпуска: 2011
Страна: Франция
Жанр: Kasting, All Sex, Oral, Anal
Продолжительность: 00:54:52
Режиссер: Пьер Вудман / Pierre Woodman
Перевод: Оригинал

В ролях: Пьер Вудман, Молоденькая венгерка

Описание: Очередное секс творение от Пьера Вудмана - его новая претендентка - молодая девушка и Пьер уверен,
что с ней он сможет оторваться на все сто процентов.

Молоденькая венгерка пришла по приглашению на фотосессию и не думала что так получится!

Качество: SiteRip
Формат: AVC
Видео кодек: MPEG-4
Аудио кодек: AAC
Видео: 564x320 (16:9), 20 fps, ~ 377 kbps avg, 0.104 bit/pixel
Аудио: ~ 38,0 kb/s, (1 ch), 22,05 kHz

Формат : MPEG-4
Профиль формата : Base Media
Идентификатор кодека : isom
Размер файла : 163 Мбайт
Продолжительность : 54 м.
Режим общего битрейта : Переменный
Общий поток : 416 Кбит/сек
Дата кодирования : UTC 2012-05-30 07:33:45
Дата пометки : UTC 2012-05-30 07:33:45

Видео
Идентификатор : 1
Формат : AVC
Формат/Информация : Advanced Video Codec
Профиль формата : Main@L2.1
Параметр CABAC формата : Нет
Параметр ReFrames формата : 6 кадров
Идентификатор кодека : avc1
Идентификатор кодека/Информация : Advanced Video Coding
Продолжительность : 54 м.
Битрейт : 377 Кбит/сек
Максимальный битрейт : 781 Кбит/сек
Ширина : 564 пикселя
Высота : 320 пикселей
Соотношение сторон : 16:9
Режим частоты кадров : Постоянный
Частота кадров : 20,000 кадров/сек
Цветовое пространство : YUV
Субдискретизация насыщенности : 4:2:0
Битовая глубина : 8 бит
Тип развёртки : Прогрессивная
Бит/(Пиксели*Кадры) : 0.104
Размер потока : 148 Мбайт (90%)
Библиотека кодирования : x264 core 119
Настройки программы : cabac=0 / ref=6 / deblock=1:0:0 / analyse=0x1:0x131 / me=esa / subme=8 / psy=1 / psy_rd=1.00:0.00 / mixed_ref=0 / me_range=16 / chroma_me=1 / trellis=1 / 8x8dct=0 / cqm=0 / deadzone=21,11 / fast_pskip=1 / chroma_qp_offset=-2 / threads=12 / sliced_threads=0 / nr=0 / decimate=1 / interlaced=0 / bluray_compat=0 / constrained_intra=0 / bframes=0 / weightp=2 / keyint=250 / keyint_min=25 / scenecut=40 / intra_refresh=0 / rc_lookahead=40 / rc=crf / mbtree=1 / crf=22.0 / qcomp=0.10 / qpmin=10 / qpmax=51 / qpstep=4 / vbv_maxrate=512 / vbv_bufsize=512 / crf_max=0.0 / nal_hrd=none / ip_ratio=1.41 / aq=1:1.00
Дата пометки : UTC 2012-05-30 07:33:46

Аудио
Идентификатор : 2
Формат : AAC
Формат/Информация : Advanced Audio Codec
Профиль формата : LC
Идентификатор кодека : 40
Продолжительность : 54 м.
Вид битрейта : Переменный
Битрейт : 38,0 Кбит/сек
Максимальный битрейт : 59,9 Кбит/сек
Каналы : 1 канал
Расположение каналов : Front: C
Частота : 22,05 КГц
Метод сжатия : С потерями
Размер потока : 14,9 Мбайт (9%)
Дата кодирования : UTC 2012-05-30 07:33:46
Дата пометки : UTC 2012-05-30 07:33:46
pb.wtf



pack Скачать Пьер Вудман оттрахал молодую девушку на кастинге через торрент http://i43.fastpic.ru/big/2012/0912/7b/03b2c29199bc45b81685c9cd2b009a7b.png Скачать фильм Пьер Вудман оттрахал молодую девушку на кастинге через торрент бесплантно в хорошем качестве Описание: Очередное секс творение от Пьера Вудмана - его новая претендентка - молодая девушка и Пьер уверен,что с ней он сможет оторваться ... 10 10 1
Info! Золотая раздача, скачанное не засчитывается.
Торрент: Зарегистрирован [2012-09-12 08:01] · скачан: 1 775 раз
Статус: √ проверено
Размер: 163 MB
Как cкачать? Как скачать Пьер Вудман оттрахал молодую девушку на кастинге через торрент | qTorrent

28-11-2019 20:33  

Отключить всю рекламу на сайте

22-09-2012 19:24 Пьер Вудман оттрахал молодую девушку на кастинге Скачать торрент  

Качают, качают. Хоть бы написали чего.
видно не понравилось. на эту тему никого не вставляет pb.wtf



pack

24-09-2012 08:46 Пьер Вудман оттрахал молодую девушку на кастинге Скачать торрент  

спасибо, очень классно, нужно еще этих роликовpb.wtf



pack
    Дорогой пользователь! Огромная просьба, поблагодарите релизера, оцените раздачу и оставьте свои комментарий, если Вы скачали Пьер Вудман оттрахал молодую девушку на кастинге через торрент бесплатно! Внесите свою лепту в развитие PiratBit!
    Комментировать посты могут только пользователи прошедшие не сложную регистрацию
    Показать сообщения:    

    Пьер Вудман оттрахал молодую девушку на кастинге через торрент
    Скачать бесплатно Пьер Вудман оттрахал молодую девушку на кастинге
    Пьер Вудман оттрахал молодую девушку на кастинге скачать торрент
    Пьер Вудман оттрахал молодую девушку на кастинге смотреть онлайн
    Cкачать фильм Пьер Вудман оттрахал молодую девушку на кастинге бесплатно
    Пьер Вудман оттрахал молодую девушку на кастинге скачать торрент в хорошем качестве
    Пьер Вудман оттрахал молодую девушку на кастинге смотреть онлайн бесплатно в хорошем качестве


    Вы не можете начинать темы
    Вы не можете отвечать на сообщения
    Вы не можете редактировать свои сообщения
    Вы не можете удалять свои сообщения
    Вы не можете голосовать в опросах
    Вы не можете прикреплять файлы к сообщениям
    Вы можете скачивать файлы