2 сезон

iTunes

MVO

1

2 сезон

iTunes

iTunes

1 сезон

RePack

30

Новинка

ВАЖНО

ИГРА 18+

pack

RePack

MK11
pack

Легкие деньги

RePack

jed

RePack

fifa19

RePack

RDR2

RePack

NEED FOR SPEED™ PAYBACK

4 сезон

9 сезон

Бесстыжие 9 сезон

Все сериалы

все сериалы на PB.wtf

RePack

FAR CRY 5

Anonymous, доброй ночи, мы не успеваем собрать деньги на оплату серверов за декабрь и январь, помогите нам пожалуйста в это трудное время. В качестве благодарности мы отключим Вам всю рекламу на сайте (укажите свой ник в строку Ваше имя)!

×
  
Magnet ссылка

Люди в чеpном 3 в 3Д / Mеn in Black 3 3D (Барри Зонненфельд) [2012 г., Фантастика, Боевик, Комедия, Приключения, BDRip, 1080p, 3D] Half OverUnder / Вертикальная анаморфная стереопара pb.wtf

Люди в чеpном 3 в 3Д через торрент pb.wtf

Размер: 12.36 GB | Добавлен: 8 лет 4 мес. назад | Торрент скачан:1457 раз
Скачать  

13-09-2012 17:12 Люди в чеpном 3 в 3Д Скачать торрент  

Люди в чеpном 3 в 3Д / Mеn in Black 3 3D

Год выпуска: 2012
Страна: США (Columbia Pictures, P+M Image Nation, Hemisphere Media Capital, Amblin Entertainment)
Жанр: Фантастика, Боевик, Комедия, Приключения
Продолжительность: 01:45:47
Перевод: Профессиональный (полное дублирование)
Язык субтитров: Русский, Английский
Режиссер:
  • Барри Зонненфельд

Роли исполняют (дублируют):
  • Агент Джей - Уилл Смит (Станислав Концевич)
  • Агент Кей - Томми Ли Джонс (Сергей Паршин)
  • Агент Кей (в молодости) - Джош Бролин (Иван Паршин)
  • Борис-животное - Джемейн Клемент (Вадим Гущин)
  • Гриффин - Майкл Стулбарг (Олег Куликович)
  • Агент О - Эмма Томпсон (Светлана Шейченко)
  • Агент О (в молодости) - Элис Ив (Виктория Слуцкая)
  • Колонел - Майк Колтер (Дмитрий Стрелков)
  • Энди Уорхол - Билл Хэйдер (Александр Лушин)
  • Подружка Бориса - Николь Шерзингер (Елена Шульман)
  • Агент Экс - Дэвид Раш
  • Джефри Прайс - Майкл Чернус
  • Мистер Ву - Кион Янг (Максим Сергеев)
  • ...
  • Инопланетянин в ТВ-мониторах - Джастин Бибер
  • Инопланетянин в ТВ-мониторах - Тим Бёртон
  • Инопланетянка в ТВ-мониторах - Леди Гага

Агент Джей узнает, что никакого защитного галактического щита, способного отразить иноземный удар, не существует. Агент Кей не построил его, потому что был убит в 1969 году. Агент Джей должен совершить путешествие во времени, чтобы спасти Землю и жизнь напарника.
|
Автор рипа Ash61Премьера: 14 мая 2012
Бюджет: $225 000 000
Кассовые сборы: $623 862 476
За исходник спасибо и BLUE_LIFE!

General
UniqueID : 182198997211761458872467405581568475664 (0x8912401DEEEC3995AC06B7D6EF4C8210)
Complete name : F:DownloadsMenInBlack3(3D)2012.halfOU(Ash61).mkv
Format : Matroska
File size : 12.4 GiB
Duration : 1h 45mn
Overall bit rate : 16.7 Mbps
Movie name : Men in Black 3 (3D) 2012 (by Ash61)
Encoded date : UTC 2012-09-11 19:36:12
Writing application : mkvmerge v3.4.0 ('Rapunzel') сборка от May 15 2010 09:38:20
Writing library : libebml v0.8.0 + libmatroska v0.9.0

Video
ID : 1
Format : AVC
Format/Info : Advanced Video Codec
Format profile : High@L4.1
Format settings, CABAC : Yes
Format settings, ReFrames : 4 frames
Codec ID : V_MPEG4/ISO/AVC
Duration : 1h 45mn
Bit rate : 14.5 Mbps
Width : 1 920 pixels
Height : 1 080 pixels
Display aspect ratio : 16:9
Frame rate : 23.976 fps
Color space : YUV
Chroma subsampling : 4:2:0
Bit depth : 8 bits
Scan type : Progressive
Bits/(Pixel*Frame) : 0.291
Stream size : 10.7 GiB (87%)
Title : BDrip by Ash61
Writing library : x264 core 119 r2106 07efeb4
Encoding settings : cabac=1 / ref=4 / deblock=1:-3:-3 / analyse=0x3:0x113 / me=umh / subme=9 / psy=1 / psy_rd=1.00:0.15 / mixed_ref=1 / me_range=16 / chroma_me=1 / trellis=2 / 8x8dct=1 / cqm=0 / deadzone=21,11 / fast_pskip=1 / chroma_qp_offset=-3 / threads=3 / sliced_threads=0 / nr=0 / decimate=1 / interlaced=0 / bluray_compat=0 / constrained_intra=0 / bframes=6 / b_pyramid=2 / b_adapt=2 / b_bias=0 / direct=3 / weightb=1 / open_gop=0 / weightp=2 / keyint=250 / keyint_min=23 / scenecut=40 / intra_refresh=0 / rc_lookahead=60 / rc=crf / mbtree=1 / crf=16.5 / qcomp=0.60 / qpmin=10 / qpmax=51 / qpstep=4 / vbv_maxrate=40000 / vbv_bufsize=40000 / crf_max=0.0 / nal_hrd=none / frame-packing=4 / ip_ratio=1.40 / aq=1:0.70
Language : English

Audio #1
ID : 2
Format : AC-3
Format/Info : Audio Coding 3
Mode extension : CM (complete main)
Codec ID : A_AC3
Duration : 1h 45mn
Bit rate mode : Constant
Bit rate : 640 Kbps
Channel(s) : 6 channels
Channel positions : Front: L C R, Side: L R, LFE
Sampling rate : 48.0 KHz
Bit depth : 16 bits
Compression mode : Lossy
Stream size : 484 MiB (4%)
Title : Дубляж (BD 3D)
Language : Russian

Audio #2
ID : 3
Format : AC-3
Format/Info : Audio Coding 3
Mode extension : CM (complete main)
Codec ID : A_AC3
Duration : 1h 45mn
Bit rate mode : Constant
Bit rate : 640 Kbps
Channel(s) : 6 channels
Channel positions : Front: L C R, Side: L R, LFE
Sampling rate : 48.0 KHz
Bit depth : 16 bits
Compression mode : Lossy
Stream size : 484 MiB (4%)
Title : Дубляж (BD 3D)
Language : Ukrainian

Audio #3
ID : 4
Format : AC-3
Format/Info : Audio Coding 3
Mode extension : CM (complete main)
Codec ID : A_AC3
Duration : 1h 45mn
Bit rate mode : Constant
Bit rate : 640 Kbps
Channel(s) : 6 channels
Channel positions : Front: L C R, Side: L R, LFE
Sampling rate : 48.0 KHz
Bit depth : 16 bits
Compression mode : Lossy
Stream size : 484 MiB (4%)
Title : Original
Language : English

Text #1
ID : 5
Format : UTF-8
Codec ID : S_TEXT/UTF8
Codec ID/Info : UTF-8 Plain Text
Title : Полные
Language : Russian

Text #2
ID : 6
Format : UTF-8
Codec ID : S_TEXT/UTF8
Codec ID/Info : UTF-8 Plain Text
Title : Full
Language : English

Menu
00:00:00.000 : :1
00:06:09.578 : :2
00:11:27.478 : :3
00:16:58.809 : :4
00:22:36.230 : :5
00:31:24.633 : :6
00:37:36.421 : :7
00:42:43.019 : :8
00:48:55.850 : :9
00:53:58.235 : :10
00:59:27.773 : :11
01:05:52.782 : :12
01:11:56.312 : :13
01:19:50.619 : :14
01:27:57.063 : :15
01:35:30.683 : :16

Качество: BDRip
Формат: MKV
Формат 3D: Half OverUnder / Вертикальная анаморфная стереопара
Видео кодек: H.264
Аудио кодек: AC3
Видео: AVC / 23,976 fps / 1920х1080p / 14.5 Mbps
Аудио:
#1 - Русский / AC3 / 48 KHz / 5.1 ch / 640 Kbps (Дубляж)
#2 - Украинский / AC3 / 48 KHz / 5.1 ch / 640 Kbps (Дубляж)
#3 - Английский / AC3 / 48 KHz / 5.1 ch / 640 Kbps
Субтитры Вшитые softsub (SRT):
#1 - Русские Полные
#2 - English Full
скриншот  скриншот  скриншот  скриншот  скриншот  скриншот  скриншот  

pb.wtf



Скачать Люди в чеpном 3 в 3Д через торрент http://s002.youpic.su/pictures/1347480000/41b964d360039cdd2dc4c57ec23ea0a5.png Скачать фильм Люди в чеpном 3 в 3Д через торрент бесплантно в хорошем качестве Год выпуска: 2012Страна: США (Columbia Pictures, P+M Image Nation, Hemisphere Media Capital, Amblin Entertainment)Жанр: Фантастика, Боевик, ... 9.7 10 15
Info! Золотая раздача, скачанное не засчитывается.
Торрент: Зарегистрирован [2012-09-13 17:12] · скачан: 1 457 раз
Статус: √ проверено
Размер: 12.36 GB
Как cкачать? Как скачать Люди в чеpном 3 в 3Д через торрент | UTorrent



Последний раз редактировалось: anton75 (2012-11-08 16:25), всего редактировалось 1 раз

28-11-2019 20:33  

Отключить всю рекламу на сайте

14-09-2012 14:12 Люди в чеpном 3 в 3Д Скачать торрент  

народ подскажите в каком проигрователе на компе посмотреть?pb.wtf



14-09-2012 15:35 Люди в чеpном 3 в 3Д Скачать торрент  

Stereoscopic playerpb.wtf



22-09-2012 18:31 Люди в чеpном 3 в 3Д Скачать торрент  

ты на компе не посмотришь, это для 3д телекаpb.wtf



23-09-2012 18:25 Люди в чеpном 3 в 3Д Скачать торрент  

Janice
есть и 3Д мониторы, на компе тоже можно смотретьpb.wtf



29-09-2012 09:00 Люди в чеpном 3 в 3Д Скачать торрент  

CyberLink PowerDVD 12pb.wtf



03-01-2013 13:57 Люди в чеpном 3 в 3Д Скачать торрент  

станьте на раздачу плиз!!!pb.wtf



    Дорогой пользователь! Огромная просьба, поблагодарите релизера, оцените раздачу и оставьте свои комментарий, если Вы скачали Люди в чеpном 3 в 3Д через торрент бесплатно! Внесите свою лепту в развитие PiratBit!
    Комментировать посты могут только пользователи прошедшие не сложную регистрацию
    Показать сообщения:    

    Люди в чеpном 3 в 3Д через торрент
    Скачать бесплатно Люди в чеpном 3 в 3Д
    Люди в чеpном 3 в 3Д скачать торрент
    Люди в чеpном 3 в 3Д смотреть онлайн
    Cкачать фильм Люди в чеpном 3 в 3Д бесплатно
    Люди в чеpном 3 в 3Д скачать торрент в хорошем качестве
    Люди в чеpном 3 в 3Д смотреть онлайн бесплатно в хорошем качестве


    Вы не можете начинать темы
    Вы не можете отвечать на сообщения
    Вы не можете редактировать свои сообщения
    Вы не можете удалять свои сообщения
    Вы не можете голосовать в опросах
    Вы не можете прикреплять файлы к сообщениям
    Вы можете скачивать файлы