Всегда рабочее зеркало без VPN и Proxy просто перед .vidak.icu напиши любое слово или цифру, Пример http://v1q5.vidak.icu

Лицензия

MVO

1 сезон

1

1 сезон

iTunes

1 сезон

13

1 сезон

Deluxe

pack

Рекомендуем

Repack

30

ВАЖНО

RePack

MK11

RePack

jed

RePack

fifa19

RePack

RDR2

RePack

NEED FOR SPEED™ PAYBACK

Кинопоиск HD

6 сезон

 Острые козырьки 6 сезон

Все сериалы

все сериалы на PB.wtf

RePack

FAR CRY 5
  
Magnet ссылка

Мясники / Slashers (Морис Деверо) [2001 г., Ужасы, DVDRip,VO ] pb.wtf

Мясники через торрент pb.wtf

Размер: 746 MB | Добавлен: 9 лет назад | Торрент скачан:36 раз
Смотреть онлайн Мясники | Скачать    Ребята, помогите собрать деньги на оплату серверов!!!

14-09-2012 06:20 Мясники Скачать торрент  


Мясники / Slashers
Год выпуска: 2001
Страна: Канада
Жанр: Ужасы
Продолжительность: 01:38:56
Перевод: Одноголосый закадровый - Вячеслав Котов

Режиссер: Морис Деверо

В ролях: Сара Джослин Краудер, Тони Кертис Блонделл, Киран Келлер, Джерри Сприо, Каролина Пла, София Демедейрос, Клодин Шираиши, Кристофер Пиггинс, Нил Напье, Такааки Хонда и др.

Описание: Шестеро американцев отправляются за океан, чтобы принять участие в популярном японском экстремальном реалити-шоу «Slashers» с главным призом в 12 миллионов долларов. Цель игры — выжить в лабиринте, в который помимо игроков запускают трёх серийных убийц...
Доп. информация:


Качество: DVDRip
Формат: AVI
Видео кодек: XviD
Аудио кодек: MP3
Видео: 704x396 (1.78:1), 29.970 fps, XviD build 63 ~912 kbps avg, 0.11 bit/pixel
Аудио#1: 44.100 kHz, MPEG Layer 3, 2 ch, ~128.00 kbps avg


E:\Movies For Seed\Ðóáàêè (2001).avi
General
Complete name : E:\Movies For Seed\Ðóáàêè (2001).avi
Format : AVI
Format/Info : Audio Video Interleave
File size : 746 MiB
Duration : 1h 38mn
Overall bit rate : 1 054 Kbps
Writing application : Lavf51.12.1
Video #0
ID : 0
Format : xvid
Codec ID : xvid
Duration : 1h 38mn
Bit rate : 912 Kbps
Width : 704 pixels
Height : 396 pixels
Display aspect ratio : 16:9
Frame rate : 29.970 fps
Bits/(Pixel*Frame) : 0.109
Stream size : 646 MiB (87%)
Audio #1
ID : 1
Format : MPEG Audio
Format version : Version 1
Format profile : Layer 3
Mode : Joint stereo
Mode extension : MS Stereo
Codec ID : 55
Codec ID/Hint : MP3
Duration : 1h 38mn
Bit rate mode : Constant
Bit rate : 128 Kbps
Channel(s) : 2 channels
Sampling rate : 44.1 KHz
Compression mode : Lossy
Stream size : 90.6 MiB (12%)
Alignment : Aligned on interleaves
Interleave, duration : 26 ms (0.78 video frame)
Interleave, preload duration : 26 ms

pb.wtf



Скачать Мясники через торрент http://4.firepic.org/4/images/2012-09/14/v79t9250kjkf.jpg Скачать, смотреть онлайн Мясники бесплантно в хорошем качестве Описание: Шестеро американцев отправляются за океан, чтобы принять участие в популярном японском экстремальном реалити-шоу «Slashers» с ... 5 10 1
Info! Золотая раздача, скачанное не засчитывается.
Торрент: Зарегистрирован [2012-09-14 06:20] · скачан: 36 раз
Статус: √ проверено
Размер: 746 MB
Как cкачать? Как скачать Мясники через торрент | UTorrent

28-11-2019 20:33  

Отключить вcю реклaмy на сайте

14-09-2012 06:45 Мясники Скачать торрент  

асилум???pb.wtf



14-09-2012 09:01 Мясники Скачать торрент  

как фильм?pb.wtf



14-09-2012 10:30 Мясники Скачать торрент  

viktorius НЕ любительский походуpb.wtf



    Дорогой пользователь! Огромная просьба, поблагодарите релизера, оцените раздачу и оставьте свои комментарий, если Вы скачали Мясники через торрент бесплатно!
    Комментировать посты могут только пользователи прошедшие не сложную регистрацию
    Показать сообщения:    

    Мясники через торрент
    Скачать бесплатно Мясники
    Мясники скачать торрент
    Мясники смотреть онлайн
    Cкачать фильм Мясники бесплатно
    Мясники скачать торрент в хорошем качестве
    Мясники смотреть онлайн бесплатно в хорошем качестве


    Вы не можете начинать темы
    Вы не можете отвечать на сообщения
    Вы не можете редактировать свои сообщения
    Вы не можете удалять свои сообщения
    Вы не можете голосовать в опросах
    Вы не можете прикреплять файлы к сообщениям
    Вы можете скачивать файлы