2 сезон

iTunes

MVO

1

2 сезон

iTunes

iTunes

1 сезон

RePack

30

Новинка

ВАЖНО

ИГРА 18+

pack

RePack

MK11
pack

Легкие деньги

RePack

jed

RePack

fifa19

RePack

RDR2

RePack

NEED FOR SPEED™ PAYBACK

4 сезон

9 сезон

Бесстыжие 9 сезон

Все сериалы

все сериалы на PB.wtf

RePack

FAR CRY 5

Anonymous, добрый вечер, мы не успеваем собрать деньги на оплату серверов за декабрь и январь, помогите нам пожалуйста в это трудное время. В качестве благодарности мы отключим Вам всю рекламу на сайте (укажите свой ник в строку Ваше имя)!

×
  
Magnet ссылка

Портал: Некуда бежать / Portal: No Escape (Дэниэл Трахтенберг) [2011 г., Боевик, Короткометражный, Фантастика, BDRip] pb.wtf

Портал: Некуда бежать через торрент pb.wtf

Размер: 108 MB | Добавлен: 8 лет 4 мес. назад | Торрент скачан:195 раз
Скачать  

15-09-2012 10:17 Портал: Некуда бежать Скачать торрент  

Портал: Некуда бежать / Portal: No Escape

Год выпуска: 2011
Страна: USA
Жанр: Боевик, Короткометражный, Фантастика
Продолжительность: 0:06:27
Перевод: Не нужен

Режиссер: Дэниэл Трахтенберг
Продюсер: Ashley Adams, Кэтлин Александр, Stephen Hens
Оператор: Keith Dunkerley
Композитор: Mike Zarin
Художник: Ник Гудман, Cindy Flores, Rachelle Hakim
Монтаж: Дэвид Трахтенберг



Премьера в мире: 23.08.2011

В ролях: Дэниэл Трахтенберг

Описание: Женщина просыпается в запертой комнате без памяти, кто она и как она туда попала..?

Доп. информация: Короткометражное видео по игре Portal не оставит равнодушным любителям игр от Valve.

Качество: BDRip
Формат: MP4
Видео кодек: AVC
Аудио кодек: AAC
Видео: 7 802 Kbps, 1920 x 1080, 16:9
Аудио: 218 Kbps, 2 channels, 44.1 KHz,
Релиз от: Nocturnal




Общее
Полное имя : C:\Users\ElectroVamp\Downloads\Portal- No Escape (Live Action Short Film by Dan Trachtenberg).mp4
Формат : MPEG-4
Профиль формата : Base Media / Version 2
Идентификатор кодека : mp42
Размер файла : 108 Мбайт
Продолжительность : 6 м. 57 с.
Режим общего битрейта : Переменный
Общий поток : 2169 Кбит/сек
Дата кодирования : UTC 2011-08-22 18:18:55
Дата пометки : UTC 2011-08-22 18:18:55
gsst : 0
gstd : 417125
gssd : BADC212A4MH1314710030939567
gshh : o-o.preferred.fra02s05.v24.lscache7.c.youtube.com

Видео
Идентификатор : 1
Формат : AVC
Формат/Информация : Advanced Video Codec
Профиль формата : High@L4.0
Параметр CABAC формата : Да
Параметр ReFrames формата : 1 кадр
Параметр GOP формата : M=1, N=24
Идентификатор кодека : avc1
Идентификатор кодека/Информация : Advanced Video Coding
Продолжительность : 6 м. 57 с.
Битрейт : 2011 Кбит/сек
Максимальный битрейт : 7802 Кбит/сек
Ширина : 1920 пикселей
Высота : 1080 пикселей
Соотношение сторон : 16:9
Режим частоты кадров : Переменный
Частота кадров : 23,976 кадра/сек
Минимальная частота кадров : 23,810 кадра/сек
Максимальная частота кадров : 24,390 кадра/сек
Цветовое пространство : YUV
Субдискретизация насыщенности : 4:2:0
Битовая глубина : 8 бит
Тип развёртки : Прогрессивная
Бит/(Пиксели*Кадры) : 0.040
Размер потока : 100 Мбайт (93%)
Дата пометки : UTC 2011-08-22 18:18:57

Аудио
Идентификатор : 2
Формат : AAC
Формат/Информация : Advanced Audio Codec
Профиль формата : LC
Идентификатор кодека : 40
Продолжительность : 6 м. 57 с.
Вид битрейта : Переменный
Битрейт : 152 Кбит/сек
Максимальный битрейт : 218 Кбит/сек
Каналы : 2 канала
Расположение каналов : Front: L R
Частота : 44,1 КГц
Метод сжатия : С потерями
Размер потока : 7,54 Мбайт (7%)
Заголовок : IsoMedia File Produced by Google, 5-11-2011
Дата кодирования : UTC 2011-08-22 18:18:56
Дата пометки : UTC 2011-08-22 18:18:57

pb.wtf



Скачать Портал: Некуда бежать через торрент http://pic.kartinco.top/images/1/4x5hvhbg1l.jpg Скачать фильм Портал: Некуда бежать через торрент бесплантно в хорошем качестве Описание: Женщина просыпается в запертой комнате без памяти, кто она и как она туда попала..?Доп. информация: Короткометражное видео по ... 10 10 2
Info! Золотая раздача, скачанное не засчитывается.
Торрент: Зарегистрирован [2012-09-15 10:17] · скачан: 195 раз
Статус: √ проверено
Размер: 108 MB
Как cкачать? Как скачать Портал: Некуда бежать через торрент | UTorrent

28-11-2019 20:33  

Отключить всю рекламу на сайте

    Дорогой пользователь! Огромная просьба, поблагодарите релизера, оцените раздачу и оставьте свои комментарий, если Вы скачали Портал: Некуда бежать через торрент бесплатно! Внесите свою лепту в развитие PiratBit!
    Комментировать посты могут только пользователи прошедшие не сложную регистрацию
    Показать сообщения:    

    Портал: Некуда бежать через торрент
    Скачать бесплатно Портал: Некуда бежать
    Портал: Некуда бежать скачать торрент
    Портал: Некуда бежать смотреть онлайн
    Cкачать фильм Портал: Некуда бежать бесплатно
    Портал: Некуда бежать скачать торрент в хорошем качестве
    Портал: Некуда бежать смотреть онлайн бесплатно в хорошем качестве


    Вы не можете начинать темы
    Вы не можете отвечать на сообщения
    Вы не можете редактировать свои сообщения
    Вы не можете удалять свои сообщения
    Вы не можете голосовать в опросах
    Вы не можете прикреплять файлы к сообщениям
    Вы можете скачивать файлы