Death Stranding+DLC+АВТОАКТИВАЦИЯ

iTunes

iTunes

iTunes

1

iTunes

iTunes

iTunes

iTunes

iTunes

30
pack

$ от Little Big

ВАЖНО

!!Акция!!

Alien_RageХит недели

RePack

Resident Evil 21

ИГРА 18+

pack

RePack

jed

!!Акция!!

Alien_Rage

RePack

fifa19

RePack

Assassins Creed: Odyssey

RePack

NEED FOR SPEED™ PAYBACK

4 сезон

9 сезон

Бесстыжие 9 сезон

Все сериалы

все сериалы на PB.wtf

RePack

FAR CRY 5
  

Черная зависть / Envy (Барри Левинсон) [2004 г., комедия, HDTVRip, MVO] pb.wtf

Черная зависть через торрент pb.wtf

Размер: 4.65 GB | Добавлен: 7 лет 9 мес. назад | Торрент скачан:186 раз
Скачать  

15-09-2012 20:34 Черная зависть Скачать торрент  

Черная зависть / Envy

Год выпуска: 2004
Страна: США
Жанр: комедия
Продолжительность: 01:39:05
Перевод: Профессиональный многоголосый
Субтитры: русские, английсике
Режиссер: Барри Левинсон
Продюссер: Барри Левинсон, Паула Вайнштейн, Ларри Дэвид
Сценарий: Стив Адамс
Бюджет: $40 000 000
Премьера в мире: 30 апреля 2004
детям до 13 лет просмотр не желателен
Мировой рейтинг IMDB 4.60 (19 623)

В ролях: Бен Стиллер, Джек Блэк, Рейчел Вайс, Эми Полер, Кристофер Уокен, Эриель Гейд, Сэм Лернер, Лили Джексон, Коннор Матеус, Гектор Елиас
Описание: Тим и Ник — закадычные друзья, соседи и коллеги по работе. Они настолько дружны, что во всем стараются походить друг на друга — даже семьи и машины у них похожи.Но внезапно это идеальное равновесие нарушается: одна из сумасшедших идей Ника начинает работать и приносить своему создателю барыши. Тиму, который раньше посмеивался над сумасбродными проектами своего друга, теперь остается только завидовать...
Качество: HDTVRip
Формат: MKV
Видео кодек: H.264x
Аудио кодек: AC3
Видео: AVC at 5180 Кбит/сек : 1280 x 720 (1.778) at 23.976 fps
Аудио#1: AC3 Dolby Digital, 5.1, 48 kHz, ~448 kbps Профессиональный (двухголосый закадровый) R5
Аудио#2: AC3 Dolby Digital, 2.0, 48 kHz, ~192 kbps Профессиональный (многоголосый закадровый) ОРТ
Аудио#3: AC3 Dolby Digital, 2.0, 48 kHz, ~192 kbps Профессиональный (двухголосый закадровый)
Аудио#4: AC3 Dolby Digital, 2.0, 48 kHz, ~192 kbps Профессиональный (двухголосый закадровый) Tycoon
Аудио #5: English AC3 Dolby Digital, 5.1, 48 kHz, ~384 kbps

Уникальный идентификатор : 247523536724953128252372510018142560616 (0xBA374C93E8DE91FE87874CDBDA196168)
Полное имя : D:\Envy.2004.HDTVRip.720p.mkv
Формат : Matroska
Размер файла : 4,65 Гбайт
Продолжительность : 1 ч. 39 м.
Общий поток : 6721 Кбит/сек
Дата кодирования : UTC 2012-09-12 13:36:12
Программа кодирования : mkvmerge v4.4.0 ('Die Wiederkehr') сборка от Oct 31 2010 21:52:48
Библиотека кодирования : libebml v1.0.0 + libmatroska v1.0.0

Видео
Идентификатор : 1
Формат : AVC
Формат/Информация : Advanced Video Codec
Профиль формата : High@L4.1
Параметр CABAC формата : Да
Параметр ReFrames формата : 9 кадров
Идентификатор кодека : V_MPEG4/ISO/AVC
Продолжительность : 1 ч. 39 м.
Битрейт : 5180 Кбит/сек
Ширина : 1280 пикс.
Высота : 720 пикс.
Соотношение сторон : 16:9
Частота кадров : 23,976 кадр/сек
Цветовое пространство : YUV
Подвыборка цветности : 4:2:0
Битовая глубина : 8 бит
Тип развёртки : Прогрессивная
Бит/(Пиксели*Кадры) : 0.234
Размер потока : 3,59 Гбайт (77%)
Библиотека кодирования : x264 core 125 r2208 d9d2288
Настройки программы : cabac=1 / ref=9 / deblock=1:-3:-3 / analyse=0x3:0x113 / me=tesa / subme=11 / psy=1 / psy_rd=1.00:0.00 / mixed_ref=1 / me_range=32 / chroma_me=1 / trellis=2 / 8x8dct=1 / cqm=0 / deadzone=21,11 / fast_pskip=0 / chroma_qp_offset=-6 / threads=12 / lookahead_threads=2 / sliced_threads=0 / nr=0 / decimate=1 / interlaced=0 / bluray_compat=0 / constrained_intra=0 / bframes=9 / b_pyramid=2 / b_adapt=2 / b_bias=0 / direct=3 / weightb=1 / open_gop=0 / weightp=2 / keyint=240 / keyint_min=22 / scenecut=40 / intra_refresh=0 / rc_lookahead=40 / rc=crf / mbtree=1 / crf=17.0 / qcomp=0.60 / qpmin=0 / qpmax=69 / qpstep=4 / vbv_maxrate=50000 / vbv_bufsize=62500 / crf_max=0.0 / nal_hrd=none / ip_ratio=1.40 / aq=1:1.00
Язык : English

Аудио #1
Идентификатор : 2
Формат : AC-3
Формат/Информация : Audio Coding 3
Расширение режима : CM (complete main)
Идентификатор кодека : A_AC3
Продолжительность : 1 ч. 39 м.
Вид битрейта : Постоянный
Битрейт : 448 Кбит/сек
Каналы : 6 каналов
Расположение каналов : Front: L C R, Side: L R, LFE
Частота : 48,0 КГц
Битовая глубина : 16 бит
Метод сжатия : С потерями
Размер потока : 318 Мбайт (7%)
Заголовок : DVO R5
Язык : Russian

Аудио #2
Идентификатор : 3
Формат : AC-3
Формат/Информация : Audio Coding 3
Расширение режима : CM (complete main)
Идентификатор кодека : A_AC3
Продолжительность : 1 ч. 39 м.
Вид битрейта : Постоянный
Битрейт : 192 Кбит/сек
Каналы : 2 канала
Расположение каналов : Front: L R
Частота : 48,0 КГц
Битовая глубина : 16 бит
Метод сжатия : С потерями
Размер потока : 136 Мбайт (3%)
Заголовок : ОРТ
Язык : Russian

Аудио #3
Идентификатор : 4
Формат : AC-3
Формат/Информация : Audio Coding 3
Расширение режима : CM (complete main)
Идентификатор кодека : A_AC3
Продолжительность : 1 ч. 39 м.
Вид битрейта : Постоянный
Битрейт : 192 Кбит/сек
Каналы : 2 канала
Расположение каналов : Front: L R
Частота : 48,0 КГц
Битовая глубина : 16 бит
Метод сжатия : С потерями
Размер потока : 136 Мбайт (3%)
Заголовок : DVO
Язык : Russian

Аудио #4
Идентификатор : 5
Формат : AC-3
Формат/Информация : Audio Coding 3
Расширение режима : CM (complete main)
Идентификатор кодека : A_AC3
Продолжительность : 1 ч. 39 м.
Вид битрейта : Постоянный
Битрейт : 192 Кбит/сек
Каналы : 2 канала
Расположение каналов : Front: L R
Частота : 48,0 КГц
Битовая глубина : 16 бит
Метод сжатия : С потерями
Размер потока : 136 Мбайт (3%)
Заголовок : Tycoon
Язык : Russian

Аудио #5
Идентификатор : 6
Формат : AC-3
Формат/Информация : Audio Coding 3
Расширение режима : CM (complete main)
Идентификатор кодека : A_AC3
Продолжительность : 1 ч. 39 м.
Вид битрейта : Постоянный
Битрейт : 384 Кбит/сек
Каналы : 6 каналов
Расположение каналов : Front: L C R, Side: L R, LFE
Частота : 48,0 КГц
Битовая глубина : 16 бит
Метод сжатия : С потерями
Размер потока : 272 Мбайт (6%)
Язык : English

Текст #1
Идентификатор : 7
Формат : UTF-8
Идентификатор кодека : S_TEXT/UTF8
Идентификатор кодека/Информация : UTF-8 Plain Text
Язык : Russian

Текст #2
Идентификатор : 8
Формат : UTF-8
Идентификатор кодека : S_TEXT/UTF8
Идентификатор кодека/Информация : UTF-8 Plain Text
Язык : English

pb.wtf



Скачать Черная зависть через торрент http://i42.fastpic.ru/big/2012/0912/bd/6535ba71f9155a18973c42c1163429bd.jpg Скачать фильм Черная зависть через торрент бесплантно в хорошем качестве Описание: Тим и Ник — закадычные друзья, соседи и коллеги по работе. Они настолько дружны, что во всем стараются походить друг на друга — ... 5 10 1
Info! Золотая раздача, скачанное не засчитывается.
Торрент: Зарегистрирован [2012-09-15 20:34] · скачан: 186 раз
Статус: √ проверено
Размер: 4.65 GB
Как cкачать? Как скачать Черная зависть через торрент | qTorrent

28-11-2019 20:33  

Отключить всю рекламу на сайте

15-09-2012 21:09 Черная зависть Скачать торрент  

Классный фильмpb.wtf



17-09-2012 11:18 Черная зависть Скачать торрент  

Такс,посмотрим!pb.wtf



    Дорогой пользователь! Огромная просьба, поблагодарите релизера, оцените раздачу и оставьте свои комментарий, если Вы скачали Черная зависть через торрент бесплатно! Внесите свою лепту в развитие PiratBit!
    Комментировать посты могут только пользователи прошедшие не сложную регистрацию
    Показать сообщения:    

    Черная зависть через торрент
    Скачать бесплатно Черная зависть
    Черная зависть скачать торрент
    Черная зависть смотреть онлайн
    Cкачать фильм Черная зависть бесплатно
    Черная зависть скачать торрент в хорошем качестве
    Черная зависть смотреть онлайн бесплатно в хорошем качестве


    Вы не можете начинать темы
    Вы не можете отвечать на сообщения
    Вы не можете редактировать свои сообщения
    Вы не можете удалять свои сообщения
    Вы не можете голосовать в опросах
    Вы не можете прикреплять файлы к сообщениям
    Вы можете скачивать файлы