Ссылка на приватное зеркало нашего сайта всего за 1$. Внимание количество ограничено!!!

2 сезон

iTunes

1 сезон

1

iTunes

iTunes

iTunes

1 сезон

RePack

30

ИГРА 18+

pack

ВАЖНО

!!Акция!!

Alien_RageХит недели

RePack

MK11
pack

Забери бонус

RePack

jed

!!Акция!!

Alien_Rage

RePack

fifa19

RePack

Assassins Creed: Odyssey

RePack

NEED FOR SPEED™ PAYBACK

4 сезон

9 сезон

Бесстыжие 9 сезон

Все сериалы

все сериалы на PB.wtf

RePack

FAR CRY 5
  

Тристан и Изольда / Tristan + Isolde (Кевин Рейнольдс) [2006 г., Мелодрама, приключения, BDRip 720p, DUB + Оригинал+MVO] pb.wtf

Тристан и Изольда через торрент pb.wtf

Размер: 8.52 GB | Добавлен: 8 лет 1 мес. назад | Торрент скачан:14 раз
Скачать  

16-09-2012 07:28 Тристан и Изольда Скачать торрент  

Тристан и Изольда / Tristan + IsoldeГод выпуска: 2006
Страна: США, Германия, Великобритания, Чехия, 20th Century Fox
Жанр: Мелодрама, приключения
Продолжительность: 02:05:15
Перевод: Дубляж + Оригинал+MVO

Режиссер: Кевин Рейнольдс

В ролях: Джеймс Франко, София Майлс, Руфус Сьюэлл, Дэвид О’Хара, Марк Стронг, Генри Кавилл, Брона Галлахер, Ронан Вайберт, Люси Расселл, Джейби Бланк, Грэхэм Маллинз, Лео Грегори, Декстер Флетчер, Ричард Диллэйн, Ганс Мартин Стир, Томас Моррис, Джэми Кинг, Вольфган Мюллер, Чейен Рашинг, Барбора Кодетова, Изобель Скотт Мойнихэн, Томас Броди Сэнгстер, Тейлор Майлс, Джек Монтгомери, Марек Вашут, Дэвид Фишер, Бронуэн Дейвис, Кевин Флуд, Филип О’Салливан, Невин Финнегэн, Йон Олафссон, Тодд Крамер, Винтер Эйв Золи, Мирослав Шимунек

Описание: История любви британского воина Тристана и ирландской принцессы Изольды. Действие разворачивается вскоре после падения Римской империи. Осиротевший в детстве, Тристан был воспитан другом его семьи лордом Марком. Повзрослев, Тристан становится храбрым рыцарем, успешно сражающимся с армией ирландского короля. Едва не погибнув в одной из битв, Тристан случайно оказывается у ирландских берегов, где его находит, а затем и исцеляет дочь короля Изольда. Между молодыми людьми, еще ничего не знающими друг о друге, вскоре зарождается настоящая любовь. Вернувшись домой, Тристан узнает, что ирландский король решил выдать свою дочь замуж за одного из британских лордов якобы для того, чтобы объединить эти государства. Будущим супругом Изольды должен стать победитель турнира. Защищая честь лорда Марка, Тристан побеждает в состязании. И только после этого он узнает, что его возлюбленная Изольда и есть та самая ирландская принцесса, которая теперь должна достаться его лучшему другу…

Субтитры: Russian, English, English, English

Качество: BDRip 720p
Формат: MKV
Видео кодек: MPEG-4 AVC/H.264
Аудио кодек: AC3/DTS
Видео: AVC, 1280x720 (16:9), 23.976 fps, 6 900 Kbps
Аудио#1: AC-3, 48.0 KHz, 2 ch, 192 Kbps, CBR (Russian) Dub
Аудио#2: DTS, 48.0 KHz, 6 ch, 755 Kbps, CBR (Russian)MVO
Аудио#3: DTS, 48.0 KHz, 6 ch, 1 510 Kbps, CBR (English)
Аудио#4: AC-3, 48.0 KHz, 2 ch, 192 Kbps, CBR (English) Коментарии

Релиз от:
General
Unique ID : 225003660709692195829814990419708290795 (0xA94620F772A4CBD3A143C8165CC326EB)
Complete name : D:\Tristan_Isolde_BDRip_tRuAVC.mkv
Format : Matroska
Format version : Version 2
File size : 8.52 GiB
Duration : 2h 5mn
Overall bit rate : 9 742 Kbps
Encoded date : UTC 2011-02-13 09:17:25
Writing application : mkvmerge v3.3.0 ('Language') built on Mar 24 2010 14:59:24
Writing library : libebml v0.8.0 + libmatroska v0.9.0

Video
ID : 1
Format : AVC
Format/Info : Advanced Video Codec
Format profile : High@L4.1
Format settings, CABAC : Yes
Format settings, ReFrames : 8 frames
Codec ID : V_MPEG4/ISO/AVC
Bit rate : 6 900 Kbps
Width : 1 280 pixels
Height : 720 pixels
Display aspect ratio : 16:9
Frame rate mode : Variable
Original frame rate : 23.976 fps
Color space : YUV
Chroma subsampling : 4:2:0
Bit depth : 8 bits
Scan type : Progressive
Bits/(Pixel*Frame) : 0.312
Title : BDRip_by_CARTER_tRuAVC
Writing library : x264 core 110 r1820 fdcf2ae
Encoding settings : cabac=1 / ref=8 / deblock=1:-2:-2 / analyse=0x3:0x113 / me=umh / subme=10 / psy=1 / psy_rd=1.00:0.10 / mixed_ref=1 / me_range=36 / chroma_me=1 / trellis=2 / 8x8dct=1 / cqm=0 / deadzone=21,11 / fast_pskip=0 / chroma_qp_offset=-3 / threads=6 / sliced_threads=0 / nr=0 / decimate=0 / interlaced=0 / constrained_intra=0 / bframes=8 / b_pyramid=2 / b_adapt=2 / b_bias=0 / direct=3 / weightb=1 / open_gop=0 / weightp=2 / keyint=250 / keyint_min=23 / scenecut=40 / intra_refresh=0 / rc_lookahead=40 / rc=2pass / mbtree=0 / bitrate=6900 / ratetol=1.0 / qcomp=0.60 / qpmin=0 / qpmax=51 / qpstep=4 / cplxblur=20.0 / qblur=0.5 / vbv_maxrate=50000 / vbv_bufsize=62500 / ip_ratio=1.20 / pb_ratio=1.30 / aq=1:0.92 / nal_hrd=none
Language : English
Default : No
Forced : No
Matrix coefficients : BT.709

Audio #1
ID : 2
Format : AC-3
Format/Info : Audio Coding 3
Mode extension : CM (complete main)
Format settings, Endianness : Big
Codec ID : A_AC3
Duration : 2h 5mn
Bit rate mode : Constant
Bit rate : 192 Kbps
Channel(s) : 2 channels
Channel positions : Front: L R
Sampling rate : 48.0 KHz
Bit depth : 16 bits
Compression mode : Lossy
Stream size : 172 MiB (2%)
Title : Dub
Language : Russian
Default : Yes
Forced : No

Audio #2
ID : 3
Format : DTS
Format/Info : Digital Theater Systems
Codec ID : A_DTS
Duration : 2h 5mn
Bit rate mode : Constant
Bit rate : 755 Kbps
Channel(s) : 6 channels
Channel positions : Front: L C R, Side: L R, LFE
Sampling rate : 48.0 KHz
Bit depth : 16 bits
Compression mode : Lossy
Stream size : 676 MiB (8%)
Title : MVO
Language : Russian
Default : No
Forced : No

Audio #3
ID : 4
Format : DTS
Format/Info : Digital Theater Systems
Codec ID : A_DTS
Duration : 2h 5mn
Bit rate mode : Constant
Bit rate : 1 510 Kbps
Channel(s) : 6 channels
Channel positions : Front: L C R, Side: L R, LFE
Sampling rate : 48.0 KHz
Bit depth : 24 bits
Compression mode : Lossy
Stream size : 1.32 GiB (15%)
Title : Original
Language : English
Default : No
Forced : No

Audio #4
ID : 5
Format : AC-3
Format/Info : Audio Coding 3
Mode extension : CM (complete main)
Format settings, Endianness : Big
Codec ID : A_AC3
Duration : 2h 5mn
Bit rate mode : Constant
Bit rate : 192 Kbps
Channel(s) : 2 channels
Channel positions : Front: L R
Sampling rate : 48.0 KHz
Bit depth : 16 bits
Compression mode : Lossy
Stream size : 172 MiB (2%)
Title : commentary by Executive Producer Jim Lemley and Co-Producer Anne Lai
Language : English
Default : No
Forced : No

Audio #5
ID : 6
Format : AC-3
Format/Info : Audio Coding 3
Mode extension : CM (complete main)
Format settings, Endianness : Big
Codec ID : A_AC3
Duration : 2h 5mn
Bit rate mode : Constant
Bit rate : 192 Kbps
Channel(s) : 2 channels
Channel positions : Front: L R
Sampling rate : 48.0 KHz
Bit depth : 16 bits
Compression mode : Lossy
Stream size : 172 MiB (2%)
Title : commentary by Writer Dean Georgaris
Language : English
Default : No
Forced : No

Text #1
ID : 7
Format : UTF-8
Codec ID : S_TEXT/UTF8
Codec ID/Info : UTF-8 Plain Text
Title : Russian full
Language : Russian
Default : No
Forced : No

Text #2
ID : 8
Format : UTF-8
Codec ID : S_TEXT/UTF8
Codec ID/Info : UTF-8 Plain Text
Title : English full
Language : English
Default : No
Forced : No

Text #3
ID : 9
Format : UTF-8
Codec ID : S_TEXT/UTF8
Codec ID/Info : UTF-8 Plain Text
Title : commentary by Executive Producer Jim Lemley and Co-Producer Anne Lai
Language : English
Default : No
Forced : No

Text #4
ID : 10
Format : UTF-8
Codec ID : S_TEXT/UTF8
Codec ID/Info : UTF-8 Plain Text
Title : commentary by Writer Dean Georgaris
Language : English
Default : No
Forced : No

Menu
00:00:00.000 : en:Chapter 1
00:04:09.749 : en:Chapter 2
00:08:55.826 : en:Chapter 3
00:12:58.652 : en:Chapter 4
00:17:39.016 : en:Chapter 5
00:22:15.584 : en:Chapter 6
00:27:02.871 : en:Chapter 7
00:31:53.870 : en:Chapter 8
00:35:04.227 : en:Chapter 9
00:39:49.595 : en:Chapter 10
00:44:05.142 : en:Chapter 11
00:48:10.971 : en:Chapter 12
00:51:58.240 : en:Chapter 13
00:56:58.540 : en:Chapter 14
01:01:53.876 : en:Chapter 15
01:06:32.488 : en:Chapter 16
01:10:17.463 : en:Chapter 17
01:12:09.033 : en:Chapter 18
01:17:07.289 : en:Chapter 19
01:21:58.705 : en:Chapter 20
01:26:52.707 : en:Chapter 21
01:31:41.412 : en:Chapter 22
01:36:40.544 : en:Chapter 23
01:41:40.052 : en:Chapter 24
01:46:31.218 : en:Chapter 25
01:50:53.146 : en:Chapter 26
01:54:34.409 : en:Chapter 27
01:57:56.569 : en:Chapter 28

pb.wtf



Скачать Тристан и Изольда через торрент http://img856.imageshack.us/img856/5612/posterkdt.jpg Скачать фильм Тристан и Изольда через торрент бесплантно в хорошем качестве Описание: История любви британского воина Тристана и ирландской принцессы Изольды. Действие разворачивается вскоре после падения Римской ... 5 10 1
Info! Золотая раздача, скачанное не засчитывается.
Торрент: Зарегистрирован [2012-09-16 07:28] · скачан: 14 раз
Статус: √ проверено
Размер: 8.52 GB
Как cкачать? Как скачать Тристан и Изольда через торрент | qTorrent

% Раздел Тема Автор DL S | L
Фильмы 2006-2008 [ 2.11 GB ] Тристан и Изольда / Tristan & Isolde [2006 Исторический романтика HDRip] DUB + MVO Лю0209 Скачать
1 | 0

28-11-2019 20:33  

Отключить всю рекламу на сайте

    Дорогой пользователь! Огромная просьба, поблагодарите релизера, оцените раздачу и оставьте свои комментарий, если Вы скачали Тристан и Изольда через торрент бесплатно! Внесите свою лепту в развитие PiratBit!
    Комментировать посты могут только пользователи прошедшие не сложную регистрацию
    Показать сообщения:    

    Тристан и Изольда через торрент
    Скачать бесплатно Тристан и Изольда
    Тристан и Изольда скачать торрент
    Тристан и Изольда смотреть онлайн
    Cкачать фильм Тристан и Изольда бесплатно
    Тристан и Изольда скачать торрент в хорошем качестве
    Тристан и Изольда смотреть онлайн бесплатно в хорошем качестве


    Вы не можете начинать темы
    Вы не можете отвечать на сообщения
    Вы не можете редактировать свои сообщения
    Вы не можете удалять свои сообщения
    Вы не можете голосовать в опросах
    Вы не можете прикреплять файлы к сообщениям
    Вы можете скачивать файлы