Ссылка на приватное зеркало нашего сайта всего за 1$. Внимание количество ограничено!!!

2 сезон

iTunes

1 сезон

1

iTunes

iTunes

iTunes

1 сезон

RePack

30

ИГРА 18+

pack

ВАЖНО

!!Акция!!

Alien_RageХит недели

RePack

MK11
pack

Забери бонус

RePack

jed

!!Акция!!

Alien_Rage

RePack

fifa19

RePack

Assassins Creed: Odyssey

RePack

NEED FOR SPEED™ PAYBACK

4 сезон

9 сезон

Бесстыжие 9 сезон

Все сериалы

все сериалы на PB.wtf

RePack

FAR CRY 5
  

Королева Проклятых / Queen of the Damned (Майкл Раймер / Michael Rymer) [2002 г., Ужасы, фэнтези, музыка, BDRip 1080p, DUB + Оригинал+MVO] pb.wtf

Королева Проклятых через торрент pb.wtf

Размер: 9.97 GB | Добавлен: 8 лет 1 мес. назад | Торрент скачан:97 раз
Скачать  

16-09-2012 07:55 Королева Проклятых Скачать торрент  

Королева Проклятых / Queen of the DamnedГод выпуска: 2002
Страна: США, Австралия
Жанр: Ужасы, фэнтези, музыка
Продолжительность: 01:41:29
Перевод: Дубляж + Оригинал+MVO

Режиссер: Майкл Раймер / Michael Rymer

В ролях: Алайя, Стюарт Таунсенд, Маргарит Моро, Венсан Перес, Пол МакГэнн, Лена Улин, Кристиан Мэнон, Клаудия Блэк, Брюс Спенс, Мэттью Ньютон

Описание: Легендарный вампир Лестат восстал из темных глубин, чтобы стать кумиром миллионов в образе рок-звезды, чья жажда крови и дьявольская музыка пробудили к жизни другое существо, королеву всех вампиров, несущую смерть. Веками она ждала шанса вернуть себе трон империи зла. Ее зовут Акаша, Прародительница всех вампиров. Пришло ее время: явился тот, кого она ждала. Чарующая мрачная музыка Лестата покоряет весь мир и зажигает страсть во всесильной Акаше. Они могут вместе вечно править миром. Но этому может помешать другое чувство: любовь Лестата к смертной девушке...

Субтитры: Russian, English

Качество: BDRip 1080p
Формат: MKV
Видео кодек: MPEG-4 AVC/H.264
Аудио кодек: AC3/DTS
Видео: AVC, 1920x800 (2.40:1), 23.976 fps, 11.7 Mbps
Аудио#1: AC-3, 48.0 KHz, 6 ch, 448 Kbps, CBR (Russian)|Дубляж, Blu-ray CEE|
Аудио#2: AC-3, 48.0 KHz, 2 ch, 224 Kbps, CBR (Russian)MVO
Аудио#3: DTS, 48.0 KHz, 6 ch, 1 510 Kbps, CBR (English)
Аудио#4: AC-3 Dolby Digital, 48.0 KHz, 2 ch, 192 Kbps, CBR (English
)
Релиз от:
General
Unique ID : 230260966677755512420958267225318311237 (0xAD3AA629C486193BA2285FCB980F4545)
Complete name : D:\Koroleva.proklyatih.2002.x264.BDRip.1080p.HDTracker.mkv
Format : Matroska
Format version : Version 2
File size : 9.97 GiB
Duration : 1h 42mn
Overall bit rate : 14.0 Mbps
Movie name : =HDTracker= by =WhiteHorse= with =MySilu=
Encoded date : UTC 2012-09-14 04:40:24
Writing application : mkvmerge v4.4.0 ('Die Wiederkehr') сборка от Oct 31 2010 21:52:48
Writing library : libebml v1.0.0 + libmatroska v1.0.0

Video
ID : 1
Format : AVC
Format/Info : Advanced Video Codec
Format profile : High@L4.1
Format settings, CABAC : Yes
Format settings, ReFrames : 4 frames
Codec ID : V_MPEG4/ISO/AVC
Duration : 1h 42mn
Bit rate : 11.7 Mbps
Width : 1 920 pixels
Height : 800 pixels
Display aspect ratio : 2.40:1
Frame rate mode : Constant
Frame rate : 23.976 fps
Color space : YUV
Chroma subsampling : 4:2:0
Bit depth : 8 bits
Scan type : Progressive
Bits/(Pixel*Frame) : 0.318
Stream size : 8.08 GiB (81%)
Title : Видеоряд
Writing library : x264 core 125 r2208 d9d2288
Encoding settings : cabac=1 / ref=4 / deblock=1:-2:-2 / analyse=0x3:0x113 / me=umh / subme=10 / psy=1 / psy_rd=1.20:0.20 / mixed_ref=1 / me_range=32 / chroma_me=1 / trellis=2 / 8x8dct=1 / cqm=0 / deadzone=21,11 / fast_pskip=0 / chroma_qp_offset=-3 / threads=9 / lookahead_threads=1 / sliced_threads=0 / nr=0 / decimate=0 / interlaced=0 / bluray_compat=0 / constrained_intra=0 / bframes=5 / b_pyramid=2 / b_adapt=2 / b_bias=0 / direct=3 / weightb=1 / open_gop=0 / weightp=2 / keyint=240 / keyint_min=1 / scenecut=40 / intra_refresh=0 / rc_lookahead=72 / rc=2pass / mbtree=1 / bitrate=11695 / ratetol=1.0 / qcomp=0.60 / qpmin=10 / qpmax=51 / qpstep=4 / cplxblur=20.0 / qblur=0.5 / vbv_maxrate=38000 / vbv_bufsize=38000 / nal_hrd=none / ip_ratio=1.40 / aq=1:1.00
Default : Yes
Forced : No

Audio #1
ID : 2
Format : AC-3
Format/Info : Audio Coding 3
Mode extension : CM (complete main)
Format settings, Endianness : Big
Codec ID : A_AC3
Duration : 1h 42mn
Bit rate mode : Constant
Bit rate : 448 Kbps
Channel(s) : 6 channels
Channel positions : Front: L C R, Side: L R, LFE
Sampling rate : 48.0 KHz
Bit depth : 16 bits
Compression mode : Lossy
Stream size : 328 MiB (3%)
Title : Многоголосый
Language : Russian
Default : Yes
Forced : No

Audio #2
ID : 3
Format : AC-3
Format/Info : Audio Coding 3
Mode extension : CM (complete main)
Format settings, Endianness : Big
Codec ID : A_AC3
Duration : 1h 42mn
Bit rate mode : Constant
Bit rate : 224 Kbps
Channel(s) : 2 channels
Channel positions : Front: L R
Sampling rate : 48.0 KHz
Bit depth : 16 bits
Compression mode : Lossy
Stream size : 164 MiB (2%)
Title : Дублированный (Мост Видео)
Language : Russian
Default : No
Forced : No

Audio #3
ID : 4
Format : DTS
Format/Info : Digital Theater Systems
Codec ID : A_DTS
Duration : 1h 42mn
Bit rate mode : Constant
Bit rate : 1 510 Kbps
Channel(s) : 6 channels
Channel positions : Front: L C R, Side: L R, LFE
Sampling rate : 48.0 KHz
Bit depth : 24 bits
Compression mode : Lossy
Stream size : 1.08 GiB (11%)
Title : Английский
Language : English
Default : No
Forced : No

Audio #4
ID : 5
Format : AC-3
Format/Info : Audio Coding 3
Format profile : Dolby Digital
Mode extension : CM (complete main)
Format settings, Endianness : Big
Codec ID : A_AC3
Duration : 1h 42mn
Bit rate mode : Constant
Bit rate : 192 Kbps
Channel(s) : 2 channels
Channel positions : Front: L R
Sampling rate : 48.0 KHz
Bit depth : 16 bits
Compression mode : Lossy
Stream size : 140 MiB (1%)
Title : Английский (комментарии)
Language : English
Default : No
Forced : No

Text #1
ID : 6
Format : UTF-8
Codec ID : S_TEXT/UTF8
Codec ID/Info : UTF-8 Plain Text
Title : Русские (full)
Language : Russian
Default : No
Forced : No

Text #2
ID : 7
Format : UTF-8
Codec ID : S_TEXT/UTF8
Codec ID/Info : UTF-8 Plain Text
Title : Английские (SDH)
Language : English
Default : No
Forced : No

Menu
00:00:00.000 : :Chapter 01
00:03:44.599 : :Chapter 02
00:06:48.157 : :Chapter 03
00:09:28.276 : :Chapter 04
00:12:29.165 : :Chapter 05
00:16:36.286 : :Chapter 06
00:20:09.583 : :Chapter 07
00:24:34.055 : :Chapter 08
00:29:09.038 : :Chapter 09
00:34:09.088 : :Chapter 10
00:37:30.164 : :Chapter 11
00:40:49.196 : :Chapter 12
00:45:11.792 : :Chapter 13
00:51:03.268 : :Chapter 14
00:55:10.473 : :Chapter 15
00:59:45.290 : :Chapter 16
01:04:18.646 : :Chapter 17
01:06:34.115 : :Chapter 18
01:09:09.311 : :Chapter 19
01:12:02.026 : :Chapter 20
01:16:46.226 : :Chapter 21
01:19:18.003 : :Chapter 22
01:21:48.278 : :Chapter 23
01:26:18.756 : :Chapter 24
01:30:07.068 : :Chapter 25
01:32:45.142 : :Chapter 26
01:37:04.485 : :Chapter 27
01:41:28.373 : :Chapter 28

pb.wtf



Скачать Королева Проклятых через торрент http://i41.fastpic.ru/big/2012/0913/d3/6b03687d079bdec8f414d646dd5f55d3.jpg Скачать фильм Королева Проклятых через торрент бесплантно в хорошем качестве Описание: Легендарный вампир Лестат восстал из темных глубин, чтобы стать кумиром миллионов в образе рок-звезды, чья жажда крови и ... 10 10 5
Info! Золотая раздача, скачанное не засчитывается.
Торрент: Зарегистрирован [2012-09-16 07:55] · скачан: 97 раз
Статус: √ проверено
Размер: 9.97 GB
Как cкачать? Как скачать Королева Проклятых через торрент | qTorrent

% Раздел Тема Автор DL S | L
Фильмы (WEB-DL 720p, 1080p) [ 4.85 GB ] Королева Проклятых / Queen of the Damned [2002 музыка HDTVRip ] sergey82 Скачать
1 | 0
Фильмы 2001-2005 [ 1.46 GB ] Королева проклятых / Queen of the Damned [2002 Вампиры музыка DVDRip] DUB -=Cherry=- Скачать
1 | 0

28-11-2019 20:33  

Отключить всю рекламу на сайте

    Дорогой пользователь! Огромная просьба, поблагодарите релизера, оцените раздачу и оставьте свои комментарий, если Вы скачали Королева Проклятых через торрент бесплатно! Внесите свою лепту в развитие PiratBit!
    Комментировать посты могут только пользователи прошедшие не сложную регистрацию
    Показать сообщения:    

    Королева Проклятых через торрент
    Скачать бесплатно Королева Проклятых
    Королева Проклятых скачать торрент
    Королева Проклятых смотреть онлайн
    Cкачать фильм Королева Проклятых бесплатно
    Королева Проклятых скачать торрент в хорошем качестве
    Королева Проклятых смотреть онлайн бесплатно в хорошем качестве


    Вы не можете начинать темы
    Вы не можете отвечать на сообщения
    Вы не можете редактировать свои сообщения
    Вы не можете удалять свои сообщения
    Вы не можете голосовать в опросах
    Вы не можете прикреплять файлы к сообщениям
    Вы можете скачивать файлы