2 сезон

iTunes

MVO

1

2 сезон

iTunes

iTunes

1 сезон

RePack

30

Ultimate

ВАЖНО

ИГРА 18+

pack

RePack

MK11
pack

Легкие деньги

RePack

jed

RePack

fifa19

RePack

RDR2

RePack

NEED FOR SPEED™ PAYBACK

4 сезон

9 сезон

Бесстыжие 9 сезон

Все сериалы

все сериалы на PB.wtf

RePack

FAR CRY 5

Anonymous, доброе утро, мы не успеваем собрать деньги на оплату серверов за декабрь и январь, помогите нам пожалуйста в это трудное время. В качестве благодарности мы отключим Вам всю рекламу на сайте (укажите свой ник в строку Ваше имя)!

×
  
Magnet ссылка

BBC: Семь чудес природы / The Greatest Places (Мэл Вольф) [1998 г., Научный детектив, HDTVRip (720), VO] pb.wtf

BBC: Семь чудес природы через торрент pb.wtf

Размер: 1.39 GB | Добавлен: 8 лет 4 мес. назад | Торрент скачан:234 раза
Скачать  

16-09-2012 08:14 BBC: Семь чудес природы Скачать торрент  

BBC: Семь чудес природы / The Greatest Places

Год выпуска: 1998
Страна: США
Жанр: Научный детектив
Продолжительность: 00:49:28
Перевод: Профессиональный одноголосый

Режиссер: Мэл Вольф

Описание: Камера покажет Вам гораздо больше, чем может увидеть турист. Вы удивитесь роскоши дворцов, соприкоснетесь с древними тайнами, восхититесь творениями природы. Нет на земле такого места, куда нельзя добраться на Вашем ковре-самолете. Вас ждут фантастические виды, неожиданные ракурсы, незабываемое путешествие и подлинные Чудеса - величайшие создания цивилизации. Когда страсть зодчего соединяется с тягой к прекрасному, рождается чудо - удивительное сооружение, над которым не властно время

Качество: HDTVRip (720)
Формат: MKV
Видео кодек: AVC
Аудио кодек: A_AC3
Видео: 3288 Кбит/сек, 1280 x 720, 29,970 кадров/сек
Аудио#1: 640 Кбит/сек, 6 каналов, 48,0 КГц
Формат : Matroska
Версия формата : Version 2
Размер файла : 1,39 Гбайт
Продолжительность : 49 м.
Общий поток : 4008 Кбит/сек
Дата кодирования : UTC 2010-12-13 17:39:11
Программа кодирования : mkvmerge v3.3.0 ('Language') built on Mar 24 2010 14:59:24
Библиотека кодирования : libebml v0.8.0 + libmatroska v0.9.0

Видео
Идентификатор : 1
Формат : AVC
Формат/Информация : Advanced Video Codec
Профиль формата : High@L4.0
Параметр CABAC формата : Да
Параметр ReFrames формата : 8 кадров
Идентификатор кодека : V_MPEG4/ISO/AVC
Продолжительность : 49 м.
Битрейт : 3288 Кбит/сек
Номинальный битрейт : 4266 Кбит/сек
Ширина : 1280 пикселей
Высота : 720 пикселей
Соотношение сторон : 16:9
Режим частоты кадров : Постоянный
Частота кадров : 29,970 кадров/сек
Цветовое пространство : YUV
Субдискретизация насыщенности : 4:2:0
Битовая глубина : 8 бит
Тип развёртки : Прогрессивная
Бит/(Пиксели*Кадры) : 0.119
Размер потока : 1,14 Гбайт (82%)
Библиотека кодирования : x264 core 92 r1510 33d382a
Настройки программы : cabac=1 / ref=8 / deblock=1:-1:-1 / analyse=0x3:0x133 / me=umh / subme=7 / psy=1 / psy_rd=1.00:0.10 / mixed_ref=1 / me_range=16 / chroma_me=1 / trellis=2 / 8x8dct=1 / cqm=0 / deadzone=21,11 / fast_pskip=0 / chroma_qp_offset=-3 / threads=6 / sliced_threads=0 / nr=0 / decimate=1 / interlaced=0 / constrained_intra=0 / bframes=3 / b_pyramid=2 / b_adapt=2 / b_bias=0 / direct=1 / wpredb=1 / wpredp=2 / keyint=250 / keyint_min=25 / scenecut=40 / intra_refresh=0 / rc_lookahead=50 / rc=abr / mbtree=1 / bitrate=4266 / ratetol=1.0 / qcomp=0.60 / qpmin=10 / qpmax=51 / qpstep=4 / ip_ratio=1.40 / aq=1:1.00
Default : Да
Forced : Нет

Аудио
Идентификатор : 2
Формат : AC-3
Формат/Информация : Audio Coding 3
Расширение режима : CM (complete main)
Параметр Endianness формата : Big
Идентификатор кодека : A_AC3
Продолжительность : 49 м.
Вид битрейта : Постоянный
Битрейт : 640 Кбит/сек
Каналы : 6 каналов
Расположение каналов : Front: L C R, Side: L R, LFE
Частота : 48,0 КГц
Битовая глубина : 16 бит
Метод сжатия : С потерями
Размер потока : 226 Мбайт (16%)
Default : Да
Forced : Нет

pb.wtf



Скачать BBC: Семь чудес природы через торрент http://img259.imageshack.us/img259/961/57706690.png Скачать фильм BBC: Семь чудес природы через торрент бесплантно в хорошем качестве Описание: Камера покажет Вам гораздо больше, чем может увидеть турист. Вы удивитесь роскоши дворцов, соприкоснетесь с древними тайнами, ... 10 10 3
Info! Золотая раздача, скачанное не засчитывается.
Торрент: Зарегистрирован [2012-09-16 08:14] · скачан: 234 раз
Статус: √ проверено
Размер: 1.39 GB
Как cкачать? Как скачать BBC: Семь чудес природы через торрент | UTorrent

28-11-2019 20:33  

Отключить всю рекламу на сайте

16-09-2012 08:44 BBC: Семь чудес природы Скачать торрент  

Лет десять назад возможни и было интересноpb.wtf



    Дорогой пользователь! Огромная просьба, поблагодарите релизера, оцените раздачу и оставьте свои комментарий, если Вы скачали BBC: Семь чудес природы через торрент бесплатно! Внесите свою лепту в развитие PiratBit!
    Комментировать посты могут только пользователи прошедшие не сложную регистрацию
    Показать сообщения:    

    BBC: Семь чудес природы через торрент
    Скачать бесплатно BBC: Семь чудес природы
    BBC: Семь чудес природы скачать торрент
    BBC: Семь чудес природы смотреть онлайн
    Cкачать фильм BBC: Семь чудес природы бесплатно
    BBC: Семь чудес природы скачать торрент в хорошем качестве
    BBC: Семь чудес природы смотреть онлайн бесплатно в хорошем качестве


    Вы не можете начинать темы
    Вы не можете отвечать на сообщения
    Вы не можете редактировать свои сообщения
    Вы не можете удалять свои сообщения
    Вы не можете голосовать в опросах
    Вы не можете прикреплять файлы к сообщениям
    Вы можете скачивать файлы