2 сезон

iTunes

MVO

1

2 сезон

iTunes

iTunes

1 сезон

RePack

30

Новинка

ВАЖНО

ИГРА 18+

pack

RePack

MK11
pack

Легкие деньги

RePack

jed

RePack

fifa19

RePack

RDR2

RePack

NEED FOR SPEED™ PAYBACK

4 сезон

9 сезон

Бесстыжие 9 сезон

Все сериалы

все сериалы на PB.wtf

RePack

FAR CRY 5

Anonymous, добрый вечер, мы не успеваем собрать деньги на оплату серверов за декабрь и январь, помогите нам пожалуйста в это трудное время. В качестве благодарности мы отключим Вам всю рекламу на сайте (укажите свой ник в строку Ваше имя)!

×
  
Magnet ссылка

BBC: Бермудский треугольник / The Bermuda Triangle (Джонатон Дент) [1999 г., Документальный, DVDRip, VO] pb.wtf

BBC: Бермудский треугольник через торрент pb.wtf

Размер: 690 MB | Добавлен: 8 лет 4 мес. назад | Торрент скачан:156 раз
Скачать  

16-09-2012 10:50 BBC: Бермудский треугольник Скачать торрент  

BBC: Бермудский треугольник / The Bermuda Triangle

Год выпуска: 1999
Страна: США
Жанр: Документальный
Продолжительность: 00:51:09
Перевод: Профессиональный одноголосый

Режиссер: Джонатон Дент

Описание: На протяжении всей истории человечества сверхъестественные (паранормальные) явления всегда завораживали людей верующих и раздражали скептиков. В новой серии фильмов "Сверхъестественные силы и явления" используются уникальные архивные материалы, интервью с учеными и свидетельства очевидцев, позволяющие приоткрыть тайны загадочных феноменов и популярных мифов, волнующих воображение современных людей. Зритель узнает много нового о загадках Бермудского треугольника, плачущих статуях, секретах левитации и многих других фактах и событиях...

Качество: DVDRip
Формат: AVI
Видео кодек: DivX
Аудио кодек: AC3
Видео: 640x480 (1.33:1), 25 fps, DivX Codec 5.2.1 build 1328 ~1684 kbps avg, 0.22 bit/pixel
Аудио#1: 48 kHz, AC3 Dolby Digital, 2/0 (L,R) ch, ~192 kbps
Формат : AVI
Формат/Информация : Audio Video Interleave
Размер файла : 690 Мбайт
Продолжительность : 51 м.
Общий поток : 1886 Кбит/сек
Программа кодирования : VirtualDubMod 1.5.10.2 (build 2540/release)
Библиотека кодирования : VirtualDubMod build 2540/release

Видео
Идентификатор : 0
Формат : MPEG-4 Visual
Параметр BVOP формата : 1
Параметр QPel формата : Нет
Параметр GMC формата : Без точки перехода
Параметр матрицы формата : Default (H.263)
Режим смешивания : Сжатый битовый поток
Идентификатор кодека : DX50
Идентификатор кодека/Подсказка : DivX 5
Продолжительность : 51 м.
Битрейт : 1684 Кбит/сек
Ширина : 640 пикселей
Высота : 480 пикселей
Соотношение сторон : 4:3
Частота кадров : 25,000 кадров/сек
Цветовое пространство : YUV
Субдискретизация насыщенности : 4:2:0
Битовая глубина : 8 бит
Тип развёртки : Прогрессивная
Метод сжатия : С потерями
Бит/(Пиксели*Кадры) : 0.219
Размер потока : 616 Мбайт (89%)
Библиотека кодирования : DivX 5.2.1 (WaffleDay) (UTC 2004-09-08)

Аудио
Идентификатор : 1
Формат : AC-3
Формат/Информация : Audio Coding 3
Расширение режима : CM (complete main)
Параметр Endianness формата : Big
Идентификатор кодека : 2000
Продолжительность : 51 м.
Вид битрейта : Постоянный
Битрейт : 192 Кбит/сек
Каналы : 2 канала
Расположение каналов : Front: L R
Частота : 48,0 КГц
Битовая глубина : 16 бит
Метод сжатия : С потерями
Размер потока : 70,3 Мбайт (10%)
Выравнивание : Разделение по промежуткам
Продолжительность промежутка : 40 мс. (1,00 видеокадр)
Время предзагрузки промежутка : 500 мс.

pb.wtf



Скачать BBC: Бермудский треугольник через торрент http://img3.imageshack.us/img3/1522/51450909.png Скачать фильм BBC: Бермудский треугольник через торрент бесплантно в хорошем качестве Описание: На протяжении всей истории человечества сверхъестественные (паранормальные) явления всегда завораживали людей верующих и ... 10 10 1
Info! Золотая раздача, скачанное не засчитывается.
Торрент: Зарегистрирован [2012-09-16 11:08] · скачан: 156 раз
Статус: √ проверено
Размер: 690 MB
Как cкачать? Как скачать BBC: Бермудский треугольник через торрент | UTorrent

% Раздел Тема Автор DL S | L
BBC [ 400 MB ] BBC: Погружение в Бермудский треугольник / BBC: Dive to the Bermuda triangle [2006 документальный TVRip] 220v0lt Скачать
1 | 0

28-11-2019 20:33  

Отключить всю рекламу на сайте

    Дорогой пользователь! Огромная просьба, поблагодарите релизера, оцените раздачу и оставьте свои комментарий, если Вы скачали BBC: Бермудский треугольник через торрент бесплатно! Внесите свою лепту в развитие PiratBit!
    Комментировать посты могут только пользователи прошедшие не сложную регистрацию
    Показать сообщения:    

    BBC: Бермудский треугольник через торрент
    Скачать бесплатно BBC: Бермудский треугольник
    BBC: Бермудский треугольник скачать торрент
    BBC: Бермудский треугольник смотреть онлайн
    Cкачать фильм BBC: Бермудский треугольник бесплатно
    BBC: Бермудский треугольник скачать торрент в хорошем качестве
    BBC: Бермудский треугольник смотреть онлайн бесплатно в хорошем качестве


    Вы не можете начинать темы
    Вы не можете отвечать на сообщения
    Вы не можете редактировать свои сообщения
    Вы не можете удалять свои сообщения
    Вы не можете голосовать в опросах
    Вы не можете прикреплять файлы к сообщениям
    Вы можете скачивать файлы