2 сезон

iTunes

MVO

1

2 сезон

iTunes

iTunes

1 сезон

RePack

30

Новинка

ВАЖНО

ИГРА 18+

pack

RePack

MK11
pack

Легкие деньги

RePack

jed

RePack

fifa19

RePack

RDR2

RePack

NEED FOR SPEED™ PAYBACK

4 сезон

9 сезон

Бесстыжие 9 сезон

Все сериалы

все сериалы на PB.wtf

RePack

FAR CRY 5

Anonymous, добрый вечер, мы не успеваем собрать деньги на оплату серверов за декабрь и январь, помогите нам пожалуйста в это трудное время. В качестве благодарности мы отключим Вам всю рекламу на сайте (укажите свой ник в строку Ваше имя)!

×
  
Magnet ссылка

BBC: Всё что мы знаем о Вселенной - неправильно? / Horizon Is everything we know about the universe wrong? [2010 г., Документальный ,HDTVRip, Профессиональный двухголосый] pb.wtf

BBC: Всё что мы знаем о Вселенной - неправильно? через торрент pb.wtf

Размер: 403 MB | Добавлен: 8 лет 4 мес. назад | Торрент скачан:394 раза
Скачать  

16-09-2012 11:46 BBC: Всё что мы знаем о Вселенной - неправильно? Скачать торрент  

BBC: Всё что мы знаем о Вселенной - неправильно? / Horizon Is everything we know about the universe wrong?

Год выпуска: 2010
Страна: США
Жанр: Документальный
Продолжительность: 00:58:24
Перевод: Профессиональный двухголосый
Субтитры: Русские, английские

Описание: Учёные космологи ставят под сомнение многие теории доказывающие рождение, расширение и саму Вселенную вообще. Прилагаются теории объясняющие существование тёмной материи и тёмной энергии и их роль в жизни Вселенной. В фильме речь пойдет также о недавно открытом темном потоке.

Качество: HDTVRip
Формат: MKV
Видео кодек: AVC
Аудио кодек: A_MPEG/L3
Видео: 650 Кбит/сек, 720 x 400, 25,000 кадров/сек
Аудио#1: 130 Кбит/сек, 2 канала, 44,1 КГц (Russian)
Аудио#2: 128 Кбит/сек, 2 канала, 48,0 КГц (English)
Формат : Matroska
Версия формата : Version 1
Размер файла : 403 Мбайт
Продолжительность : 58 м.
Режим общего битрейта : Переменный
Общий поток : 956 Кбит/сек
Дата кодирования : UTC 2011-01-29 13:13:53
Программа кодирования : mkvmerge v2.4.0 ('Fumbling Towards Ecstasy') built on Oct 11 2008 20:13:15
Библиотека кодирования : libebml v0.7.7 + libmatroska v0.8.1

Видео
Идентификатор : 1
Формат : AVC
Формат/Информация : Advanced Video Codec
Профиль формата : Baseline@L5.1
Параметр CABAC формата : Нет
Параметр ReFrames формата : 1 кадр
Параметр GOP формата : M=1, N=12
Идентификатор кодека : V_MPEG4/ISO/AVC
Продолжительность : 58 м.
Битрейт : 650 Кбит/сек
Ширина : 720 пикселей
Высота : 400 пикселей
Соотношение сторон : 16:9
Соотношение сторон в оригинале : 16:9
Режим частоты кадров : Постоянный
Частота кадров : 25,000 кадров/сек
Цветовое пространство : YUV
Субдискретизация насыщенности : 4:2:0
Битовая глубина : 8 бит
Тип развёртки : Прогрессивная
Бит/(Пиксели*Кадры) : 0.090
Размер потока : 286 Мбайт (71%)
Библиотека кодирования : x264 core 57
Настройки программы : cabac=0 / ref=1 / deblock=0:0:0 / analyse=0x1:0 / me=dia / subme=7 / brdo=0 / mixed_ref=0 / me_range=4 / chroma_me=0 / trellis=0 / 8x8dct=0 / cqm=0 / deadzone=21,11 / chroma_qp_offset=0 / threads=1 / nr=0 / decimate=1 / mbaff=0 / bframes=0 / keyint=12 / keyint_min=7 / scenecut=0 / rc=abr / bitrate=650 / ratetol=6.2 / rceq='tex^qComp' / qcomp=0.50 / qpmin=2 / qpmax=31 / qpstep=3 / ip_ratio=1.25
Default : Да
Forced : Нет

Аудио #1
Идентификатор : 2
Формат : MPEG Audio
Версия формата : Version 1
Профиль формата : Layer 3
Идентификатор кодека : A_MPEG/L3
Идентификатор кодека/Подсказка : MP3
Продолжительность : 58 м.
Вид битрейта : Переменный
Битрейт : 130 Кбит/сек
Минимальный битрейт : 48,0 Кбит/сек
Каналы : 2 канала
Частота : 44,1 КГц
Метод сжатия : С потерями
Размер потока : 54,9 Мбайт (14%)
Библиотека кодирования : LAME3.98
Настройки программы : -m s -V 7 -q 0 -lowpass 14.5 --vbr-new -b 48
Default : Да
Forced : Нет

Аудио #2
Идентификатор : 3
Формат : AC-3
Формат/Информация : Audio Coding 3
Расширение режима : CM (complete main)
Параметр Endianness формата : Big
Идентификатор кодека : A_AC3
Продолжительность : 58 м.
Вид битрейта : Постоянный
Битрейт : 128 Кбит/сек
Каналы : 2 канала
Расположение каналов : Front: L R
Частота : 48,0 КГц
Битовая глубина : 16 бит
Метод сжатия : С потерями
Размер потока : 54,0 Мбайт (13%)
Default : Нет
Forced : Нет

Текст #1
Идентификатор : 4
Формат : UTF-8
Идентификатор кодека : S_TEXT/UTF8
Идентификатор кодека/Информация : UTF-8 Plain Text
Default : Да
Forced : Нет

Текст #2
Идентификатор : 5
Формат : UTF-8
Идентификатор кодека : S_TEXT/UTF8
Идентификатор кодека/Информация : UTF-8 Plain Text
Default : Нет
Forced : Нет

pb.wtf



Скачать BBC: Всё что мы знаем о Вселенной - неправильно? через торрент http://img833.imageshack.us/img833/7166/44760875.png Скачать фильм BBC: Всё что мы знаем о Вселенной - неправильно? через торрент бесплантно в хорошем качестве Описание: Учёные космологи ставят под сомнение многие теории доказывающие рождение, расширение и саму Вселенную вообще. Прилагаются теории ... 10 10 4
Info! Золотая раздача, скачанное не засчитывается.
Торрент: Зарегистрирован [2012-09-16 11:46] · скачан: 394 раз
Статус: √ проверено
Размер: 403 MB
Как cкачать? Как скачать BBC: Всё что мы знаем о Вселенной - неправильно? через торрент | UTorrent

28-11-2019 20:33  

Отключить всю рекламу на сайте

16-09-2012 13:24 BBC: Всё что мы знаем о Вселенной - неправильно? Скачать торрент  

Я первый
остаюсь на раздачеpb.wtf



16-09-2012 15:58 BBC: Всё что мы знаем о Вселенной - неправильно? Скачать торрент  

башны катралар бу пиндослар!pb.wtf



    Дорогой пользователь! Огромная просьба, поблагодарите релизера, оцените раздачу и оставьте свои комментарий, если Вы скачали BBC: Всё что мы знаем о Вселенной - неправильно? через торрент бесплатно! Внесите свою лепту в развитие PiratBit!
    Комментировать посты могут только пользователи прошедшие не сложную регистрацию
    Показать сообщения:    

    BBC: Всё что мы знаем о Вселенной - неправильно? через торрент
    Скачать бесплатно BBC: Всё что мы знаем о Вселенной - неправильно?
    BBC: Всё что мы знаем о Вселенной - неправильно? скачать торрент
    BBC: Всё что мы знаем о Вселенной - неправильно? смотреть онлайн
    Cкачать фильм BBC: Всё что мы знаем о Вселенной - неправильно? бесплатно
    BBC: Всё что мы знаем о Вселенной - неправильно? скачать торрент в хорошем качестве
    BBC: Всё что мы знаем о Вселенной - неправильно? смотреть онлайн бесплатно в хорошем качестве


    Вы не можете начинать темы
    Вы не можете отвечать на сообщения
    Вы не можете редактировать свои сообщения
    Вы не можете удалять свои сообщения
    Вы не можете голосовать в опросах
    Вы не можете прикреплять файлы к сообщениям
    Вы можете скачивать файлы