MEGA NEWS Получи личный уникальный адрес сайта и защити себя от блокировок. Внимание количество ограничено!!!

iTunes

1+1

iTunes

мы

iTunes

1

iTunes

Чернобыль

iTunes

Ральф против интернета

Лицензия

ПШазам

Лицензия

Игра престолов

Лицензия

30
pack

ВАЖНО

!!Акция!!

Alien_RageХит недели

RePack

Resident Evil 21

ИГРА 18+

pack

RePack

Metro:Exodus

!!Акция!!

Alien_Rage

RePack

fifa19

RePack

Assassins Creed: Odyssey

RePack

NEED FOR SPEED™ PAYBACK

3 сезон

9 сезон

Бесстыжие 9 сезон

Все сериалы

все сериалы на PB.wtf

RePack

FAR CRY 5
Ребята, катастрофически не хватает 1900р. для оплаты серверов за АВГУСТ (всвязи с блокировками трафик упал в 3 раза), 1-2р., выручайте.
  

Без чувств / Senseless (Пенелопа Сфирис) [1998 г., мелодрама, комедия, DVDRip, MVO] pb.wtf

Без чувств через торрент pb.wtf

Размер: 1.7 GB | Добавлен: 7 лет 1 мес. назад | Торрент скачан:155 раз
Скачать  

16-09-2012 14:53 Без чувств Скачать торрент  

Без чувств / Senseless

Год выпуска: 1998
Страна: США
Жанр: мелодрама, комедия
Продолжительность: 93 мин. / 01:33
Перевод: Любительский многоголосый

Режиссер: Пенелопа Сфирис
Продюссер: Дэвид Хоберман, Терри Остин, Боб Вайнштейн
Сценарий: Грег Эрб, Крэйг Мазин

Премьера в мире: 20 февраля 1998

лицам до 17 лет обязательно присутствие взрослого



В ролях: Марлон Уайанс, Дэвид Спейд, Мэттью Лиллард, Тамара Тейлор, Брэд Дуриф, Рип Торн, Эстер Скотт, Дебра Джо Рапп, Марк Кристофер Лоуренс, Джон Ингл

Описание: Бедный студент Дэррил Уизерспун трудится на четырех работах, но денег на оплату счетов всё равно не хватает. В надежде добыть еще немного средств Дэррил соглашается принять участие в сомнительном медицинском эксперименте. Молодой человек становится чуть ли не супергероем, но неожиданно о себе дают знать странные побочные эффекты...

Качество: DVDRip
Формат: AVI
Видео кодек: XviD
Аудио кодек: AC3
Видео: Xvid 720x384 25fps
Аудио#1: PCM (AC3) 48000Hz 6ch 384kbps(Многоголосый)
Аудио#2: Dolby AC3 48000Hz 6ch 384kbps(Русский)
Аудио#3: Dolby AC3 48000Hz 6ch 384kbps(English)
скриншот   скриншот   скриншот   скриншот   скриншот   скриншот  

General
Format : AVI
Format/Info : Audio Video Interleave
File size : 1.46 GiB
Duration : 1h 28mn
Overall bit rate : 2 352 Kbps
Movie name : Без чувств / Senseless
Director : zim2001
Writing application : VirtualDubMod 1.5.10.2 (build 2540/release)
Copyright : torrents.ru

Video
ID : 0
Format : MPEG-4 Visual
Format profile : Advanced Simple@L5
Format settings, BVOP : 2
Format settings, QPel : No
Format settings, GMC : No warppoints
Format settings, Matrix : Custom
Codec ID : XVID
Codec ID/Hint : XviD
Duration : 1h 28mn
Bit rate : 1 569 Kbps
Width : 720 pixels
Height : 384 pixels
Display aspect ratio : 1.875
Frame rate : 25.000 fps
Color space : YUV
Chroma subsampling : 4:2:0
Bit depth : 8 bits
Scan type : Progressive
Compression mode : Lossy
Bits/(Pixel*Frame) : 0.227
Stream size : 996 MiB (67%)
Writing library : XviD 1.2.1 (UTC 2008-12-04)

Audio #1
ID : 1
Format : AC-3
Format/Info : Audio Coding 3
Mode extension : CM (complete main)
Codec ID : 2000
Duration : 1h 28mn
Bit rate mode : Constant
Bit rate : 384 Kbps
Channel(s) : 6 channels
Channel positions : Front: L C R, Side: L R, LFE
Sampling rate : 48.0 KHz
Bit depth : 16 bits
Compression mode : Lossy
Stream size : 244 MiB (16%)
Alignment : Split accross interleaves
Interleave, duration : 40 ms (1.00 video frame)
Interleave, preload duration : 500 ms

Audio #2
ID : 2
Format : AC-3
Format/Info : Audio Coding 3
Mode extension : CM (complete main)
Codec ID : 2000
Duration : 1h 28mn
Bit rate mode : Constant
Bit rate : 384 Kbps
Channel(s) : 6 channels
Channel positions : Front: L C R, Side: L R, LFE
Sampling rate : 48.0 KHz
Bit depth : 16 bits
Compression mode : Lossy
Stream size : 244 MiB (16%)
Alignment : Split accross interleaves
Interleave, duration : 40 ms (1.00 video frame)
Interleave, preload duration : 500 ms

pb.wtf



Скачать Без чувств через торрент http://pic.kartinco.top/images/1/ug8abzeqmt.jpg Скачать фильм Без чувств через торрент бесплантно в хорошем качестве Описание: Бедный студент Дэррил Уизерспун трудится на четырех работах, но денег на оплату счетов всё равно не хватает. В надежде добыть еще ... 10 10 7
Info! Золотая раздача, скачанное не засчитывается.
Торрент: Зарегистрирован [2012-09-16 14:53] · скачан: 155 раз
Статус: √ проверено
Размер: 1.7 GB
Как cкачать? Как скачать Без чувств через торрент | qTorrent

% Раздел Тема Автор DL S | L
Фильмы [HD 720p, 1080p] (Хороший звук DUB, MVO) [ 12.4 GB ] Без чувств / Senseless [1998 BDRip 1080p by msltel] MVO DVO AVO msltel Скачать
1 | 0
Фильмы [HD 720p, 1080p] (Хороший звук DUB, MVO) [ 4.8 GB ] Без чувств / Senseless [1998 BDRip 720p by msltel] MVO DVO AVO msltel Скачать
1 | 0
Фильмы до 2000 г. [ 1.7 GB ] Без чувств / Senseless [1998 BDRip] [MVO] + [AVO] + [Orig]+ [Sub] killermax2013 Скачать
1 | 0
Фильмы до 2000 г. [ 1.46 GB ] Без чувств / Бесчувственный / Бестолочь / Senseless [1998 DVDRip] [Fullscreen version] MVO + DVO Ворон Скачать
1 | 0
Фильмы [HD 720p, 1080p] (Хороший звук DUB, MVO) [ 7.9 GB ] Без чувств / Senseless [1998 BDRip 720p MVO] Ke$h@ Скачать
1 | 1
Фильмы до 2000 г. [ 671 MB ] Без чувств  / Senseless [1998 молодежная DVDRip] CNB Скачать
1 | 0


>> Регистрируемся здесь <<






Отзывы и комментарии о схеме читаем и пишем здесь: ---> Отзывы и комментарии о схеме

Новые благодарочки в телеграм довольных пользователей:
скриншот   скриншот   скриншот   скриншот   скриншот

16-09-2012 15:14 Без чувств Скачать торрент  

Убойная комедия pb.wtf



16-09-2012 15:48 Без чувств Скачать торрент  

Да, комедия не плохая. Кто не смотрел, стоит посмотреть.pb.wtf



16-09-2012 16:53 Без чувств Скачать торрент  

Класс фильмpb.wtf



16-09-2012 17:47 Без чувств Скачать торрент  

Помню на видике раз 6 пересмотрел) Угарный фильм)pb.wtf



14-02-2013 13:24 Без чувств Скачать торрент  

Одна из любимых комедий моего детства :) помню над моментом где он зад ёршиком чесал я угарал минут 15 пока живот болеть не начал pb.wtf



    Дорогой пользователь! Огромная просьба, поблагодарите релизера, оцените раздачу и оставьте свои комментарий, если Вы скачали Без чувств через торрент бесплатно! Внесите свою лепту в развитие PiratBit!
    Комментировать посты могут только пользователи прошедшие не сложную регистрацию
    Показать сообщения:    

    Без чувств через торрент
    Скачать бесплатно Без чувств
    Без чувств скачать торрент
    Без чувств смотреть онлайн
    Cкачать фильм Без чувств бесплатно
    Без чувств скачать торрент в хорошем качестве
    Без чувств смотреть онлайн бесплатно в хорошем качестве


    Вы не можете начинать темы
    Вы не можете отвечать на сообщения
    Вы не можете редактировать свои сообщения
    Вы не можете удалять свои сообщения
    Вы не можете голосовать в опросах
    Вы не можете прикреплять файлы к сообщениям
    Вы можете скачивать файлы