Ссылка на приватное зеркало нашего сайта всего за 1$. Внимание количество ограничено!!!

2 сезон

iTunes

1 сезон

1

iTunes

iTunes

iTunes

1 сезон

RePack

30

ИГРА 18+

pack

ВАЖНО

!!Акция!!

Alien_RageХит недели

RePack

MK11
pack

Забери бонус

RePack

jed

!!Акция!!

Alien_Rage

RePack

fifa19

RePack

Assassins Creed: Odyssey

RePack

NEED FOR SPEED™ PAYBACK

4 сезон

9 сезон

Бесстыжие 9 сезон

Все сериалы

все сериалы на PB.wtf

RePack

FAR CRY 5
  

28 недель спустя / 28 Weeks Later (Хуан Карлос Фреснадильо /Juan Carlos Fresnadillo) [2007 г., Ужасы, Триллер, BDRip 720p, DUB + Оригинал] pb.wtf

28 недель спустя через торрент pb.wtf

Размер: 7.77 GB | Добавлен: 8 лет 1 мес. назад | Торрент скачан:114 раз
Скачать  

17-09-2012 12:09 28 недель спустя Скачать торрент  

28 недель спустя / 28 Weeks LaterГод выпуска: 2007
Страна: Великобритания, Испания, DNA Films
Жанр: Ужасы, Триллер
Продолжительность: 01:40:06
Перевод: Дубляж + Оригинал

Режиссер: Хуан Карлос Фреснадильо /Juan Carlos Fresnadillo/

В ролях: Роберт Карлайл /Robert Carlyle/, Роуз Бирн /Rose Byrne/, Джереми Реннер /Jeremy Renner/, Катрин МакКормак /Catherine McCormack/, Хэролд Перрино /Harold Perrineau/, Имоджен Путс /Imogen Poots/, Идрис Эльба /Idris Elba/, Аманда Уокер /Amanda Walker/, Макинтош Магглтон /Mackintosh Muggleton/, Шахид Ахмед /Shahid Ahmed/, ...

Описание: Действие фильма происходит спустя шесть месяцев после того, как вирус ярости опустошил Лондон. Армия США восстановила порядок и заселяет город, который находился под карантином...

Субтитры: Русские, Английские.
Качество: BDRip 720p
Формат: MKV
Видео кодек: MPEG 4 AVC/H.264
Аудио кодек: AC3
Видео: AVC, 1280x700 (16:9), 23.976 fps, 9 825 Kbps
Аудио#1: AC-3, 48.0 KHz, 6 ch, 640 Kbps, CBR (Russian)
Аудио#2: AC-3, 48.0 KHz, 6 ch, 640 Kbps, CBR (English)


General
Unique ID : 251320424974769299883574048524199641261 (0xBD128D9F2354E780BA99DC92148DC0AD)
Complete name : D:\28.Nedel.Spustya.2007.DUAL.BDRip.720p.x264.AC3.-HQ-ViDEO.mkv
Format : Matroska
Format version : Version 2
File size : 7.77 GiB
Duration : 1h 40mn
Overall bit rate : 11.1 Mbps
Encoded date : UTC 2012-08-29 13:11:28
Writing application : mkvmerge v5.6.0 ('Kenya Kane') built on May 27 2012 16:44:04
Writing library : libebml v1.2.3 + libmatroska v1.3.0

Video
ID : 1
Format : AVC
Format/Info : Advanced Video Codec
Format profile : High@L4.1
Format settings, CABAC : Yes
Format settings, ReFrames : 5 frames
Format settings, GOP : N=1
Codec ID : V_MPEG4/ISO/AVC
Duration : 1h 40mn
Bit rate : 9 825 Kbps
Width : 1 280 pixels
Height : 700 pixels
Display aspect ratio : 1.85:1
Frame rate mode : Constant
Frame rate : 23.976 fps
Color space : YUV
Chroma subsampling : 4:2:0
Bit depth : 8 bits
Scan type : Progressive
Bits/(Pixel*Frame) : 0.457
Stream size : 6.72 GiB (86%)
Title : Encode by CtrlHD
Writing library : x264 core 58 r786M aa5391a
Encoding settings : cabac=1 / ref=5 / deblock=1:-3:-3 / analyse=0x3:0x133 / me=umh / subme=7 / me-prepass=0 / brdo=1 / mixed_ref=1 / me_range=16 / chroma_me=1 / trellis=0 / 8x8dct=1 / cqm=2 / deadzone=6,4 / chroma_qp_offset=0 / threads=6 / nr=0 / decimate=1 / mbaff=0 / bframes=3 / b_pyramid=1 / b_adapt=1 / b_bias=0 / direct=1 / wpredb=1 / bime=1 / keyint=250 / keyint_min=25 / scenecut=40(pre) / rc=2pass / bitrate=9825 / ratetol=1.0 / rceq='blurCplx^(1-qComp)' / qcomp=1.00 / qpmin=10 / qpmax=51 / qpstep=4 / cplxblur=20.0 / qblur=0.5 / ip_ratio=1.40 / pb_ratio=1.30 / aq=1:0.5:13.0
Language : English
Default : Yes
Forced : No

Audio #1
ID : 2
Format : AC-3
Format/Info : Audio Coding 3
Mode extension : CM (complete main)
Format settings, Endianness : Big
Codec ID : A_AC3
Duration : 1h 40mn
Bit rate mode : Constant
Bit rate : 640 Kbps
Channel(s) : 6 channels
Channel positions : Front: L C R, Side: L R, LFE
Sampling rate : 48.0 KHz
Bit depth : 16 bits
Compression mode : Lossy
Stream size : 459 MiB (6%)
Title : DUB
Language : Russian
Default : Yes
Forced : No

Audio #2
ID : 3
Format : AC-3
Format/Info : Audio Coding 3
Mode extension : CM (complete main)
Format settings, Endianness : Big
Codec ID : A_AC3
Duration : 1h 40mn
Bit rate mode : Constant
Bit rate : 640 Kbps
Channel(s) : 6 channels
Channel positions : Front: L C R, Side: L R, LFE
Sampling rate : 48.0 KHz
Bit depth : 16 bits
Compression mode : Lossy
Stream size : 459 MiB (6%)
Language : English
Default : No
Forced : No

Text #1
ID : 4
Format : UTF-8
Codec ID : S_TEXT/UTF8
Codec ID/Info : UTF-8 Plain Text
Language : Russian
Default : No
Forced : No

Text #2
ID : 5
Format : UTF-8
Codec ID : S_TEXT/UTF8
Codec ID/Info : UTF-8 Plain Text
Language : English
Default : No
Forced : No

pb.wtf



Скачать 28 недель спустя через торрент http://i12.fastpic.ru/big/2010/1119/8c/6edf6afa45ad53c1db71e6c4f814dd8c.jpg Скачать фильм 28 недель спустя через торрент бесплантно в хорошем качестве Описание: Действие фильма происходит спустя шесть месяцев после того, как вирус ярости опустошил Лондон. Армия США восстановила порядок и ... 10 10 9
Info! Золотая раздача, скачанное не засчитывается.
Торрент: Зарегистрирован [2012-09-17 12:09] · скачан: 114 раз
Статус: √ проверено
Размер: 7.77 GB
Как cкачать? Как скачать 28 недель спустя через торрент | qTorrent

% Раздел Тема Автор DL S | L
Сборники (HD Video) [ 18.15 GB ] 28 дней недель спустя: Дилогия / 28 Days Weeks Later: Dilogy [2002 2007 BDRip 720p] DUB MVO DVO AVO Леонид Ильич Скачать
1 | 0
Фильмы 2006-2008 [ 2.11 GB ] 28 недель спустя / 28 Weeks Later [2007 HDRip] кэп Скачать
1 | 0
Фильмы [HD 720p, 1080p] (Хороший звук DUB, MVO) [ 15.96 GB ] 28 недель спустя / 28 Weeks Later [2007 BDRip 1080p] Dub + 2xDVO + Original + Sub Seedtank Скачать
1 | 0
Фильмы (HD 720p, 1080p) (48-60 fps) [ 24.52 GB ] 28 дней / недель спустя / 28 Days / Weeks Later [2002 BDRip 1080p / 60 FPS ] Tiberiumsun69 Скачать
1 | 1
Сборники (HD Video) [ 9.05 GB ] 28 дней недель спустя / 28 Days Weeks Later [20022007 Испания BDRip 720] Dub Original Eng Sub Assasinca Скачать
1 | 0
Фильмы 2006-2008 [ 742 MB ] 28 недель спустя / 28 Weeks Later [2007 ... HDRip] Venxxx Скачать
1 | 0


Последний раз редактировалось: AlexKa (2012-09-17 20:32), всего редактировалось 2 раз(а)

28-11-2019 20:33  

Отключить всю рекламу на сайте

17-09-2012 13:04 28 недель спустя Скачать торрент  

AlexKa
Максимальный размер постера 700х700. Уменьши.pb.wtf



04-04-2013 12:16 28 недель спустя Скачать торрент  

Супер фильм, музыкальное сопровождение отличное)pb.wtf



10-07-2013 16:14 28 недель спустя Скачать торрент  

отличный фильмpb.wtf



    Дорогой пользователь! Огромная просьба, поблагодарите релизера, оцените раздачу и оставьте свои комментарий, если Вы скачали 28 недель спустя через торрент бесплатно! Внесите свою лепту в развитие PiratBit!
    Комментировать посты могут только пользователи прошедшие не сложную регистрацию
    Показать сообщения:    

    28 недель спустя через торрент
    Скачать бесплатно 28 недель спустя
    28 недель спустя скачать торрент
    28 недель спустя смотреть онлайн
    Cкачать фильм 28 недель спустя бесплатно
    28 недель спустя скачать торрент в хорошем качестве
    28 недель спустя смотреть онлайн бесплатно в хорошем качестве


    Вы не можете начинать темы
    Вы не можете отвечать на сообщения
    Вы не можете редактировать свои сообщения
    Вы не можете удалять свои сообщения
    Вы не можете голосовать в опросах
    Вы не можете прикреплять файлы к сообщениям
    Вы можете скачивать файлы