1 сезон

1 сезон

iTunes

1

КиноПоиск HD

Кинопоиск HD

iTunes

13

1 сезон

RePack

30

Новинка

ВАЖНО

ИГРА 18+

pack

RePack

MK11
pack

Легкие деньги

RePack

jed

RePack

fifa19

RePack

RDR2

RePack

NEED FOR SPEED™ PAYBACK

4 сезон

9 сезон

Бесстыжие 9 сезон

Все сериалы

все сериалы на PB.wtf

RePack

FAR CRY 5
  
Magnet ссылка

Перл Харбор / Pearl Harbor (Майкл Бэй) [2001 г., боевик, мелодрама, военный, HDRip,Дубляж ] pb.wtf

Перл Харбор через торрент pb.wtf

Размер: 1.46 GB | Добавлен: 8 лет 6 мес. назад | Торрент скачан:477 раз
Скачать  

18-09-2012 11:50 Перл Харбор Скачать торрент  


Перл Харбор / Pearl Harbor
Год выпуска: 2001
Страна: США, Франция
Жанр: боевик, мелодрама, военный
Продолжительность: 03:03:05
Перевод: Профессиональный (полное дублирование)

Режиссер: Майкл Бэй

В ролях: Бен Аффлек, Джош Хартнет, Кейт Бекинсейл, Кьюба Гудинг мл., Джон Войт, Алек Болдуин, Том Сайзмор, Уильям Ли Скотт, Грег Зоула, Ивен Бремнер, Джейми Кинг, Катрин Келлнер, Дженнифер Гарнер, Сара Ру, Майкл Шеннон, Дэн Эйкройд, Колм Фиори, Джон Фуджиока, Мако, Кэри-Хироюки Тагава, Мэттью Дэвис

Описание: 1941 год, США. Вся Европа под властью нацистов, немецкие танки подходят к Москве. Отделенная двумя океанами от бушующего пламени Второй Мировой, Америка продолжает жить нормальной жизнью - снимается кино, люди ходят в рестораны, на танцы, влюбляются, женятся... Но уже отдан приказ Императора Японии, и сотни самолетов на бреющем полете приближаются к Перл Харбору, главной базе военно-морского флота США...
Доп. информация:


Качество: HDRip
Формат: AVI
Видео кодек: XviD
Аудио кодек: AC3
Видео: 720x304 (2.37:1), 23.976 fps, XviD build 50 ~940 kbps avg, 0.18 bit/pixel
Аудио#1: 48 kHz, AC3 Dolby Digital, 2/0 (L,R) ch, ~192 kbps


Video #0
ID : 0
Format : MPEG-4 Visual
Format profile : Advanced Simple@L5
Format settings, BVOP : 1
Format settings, QPel : No
Format settings, GMC : No warppoints
Format settings, Matrix : Custom
Codec ID : XVID
Codec ID/Hint : XviD
Duration : 3h 3mn
Bit rate : 941 Kbps
Width : 720 pixels
Height : 304 pixels
Display aspect ratio : 2.35:1
Frame rate : 23.976 fps
Color space : YUV
Chroma subsampling : 4:2:0
Bit depth : 8 bits
Scan type : Progressive
Compression mode : Lossy
Bits/(Pixel*Frame) : 0.179
Stream size : 1.20 GiB (82%)
Writing library : XviD 1.2.1 (UTC 2008-12-04)
Audio #1
ID : 1
Format : AC-3
Format/Info : Audio Coding 3
Mode extension : CM (complete main)
Format settings, Endianness : Big
Codec ID : 2000
Duration : 3h 3mn
Bit rate mode : Constant
Bit rate : 192 Kbps
Channel(s) : 2 channels
Channel positions : Front: L R
Sampling rate : 48.0 KHz
Bit depth : 16 bits
Compression mode : Lossy
Stream size : 251 MiB (17%)
Alignment : Split accross interleaves
Interleave, duration : 42 ms (1.00 video frame)
Interleave, preload duration : 500 ms

pb.wtf



Скачать Перл Харбор через торрент http://4.firepic.org/4/images/2012-09/17/72d05pqbhot4.jpg Скачать фильм Перл Харбор через торрент бесплантно в хорошем качестве Описание: 1941 год, США. Вся Европа под властью нацистов, немецкие танки подходят к Москве. Отделенная двумя океанами от бушующего пламени ... 10 10 8
Info! Золотая раздача, скачанное не засчитывается.
Торрент: Зарегистрирован [2012-09-18 11:50] · скачан: 477 раз
Статус: √ проверено
Размер: 1.46 GB
Как cкачать? Как скачать Перл Харбор через торрент | UTorrent

% Раздел Тема Автор DL S | L
Фильмы [HD 720p, 1080p] (Хороший звук DUB, MVO) [ 5.1 GB ] Перл Харбор / Pearl Harbor [2001 военный BDRip 1080p-HEVC 10bit ] ADVOKAT69 Скачать
1 | 0
Фильмы (Blu-ray, BD-Remux, HDDVD) [ 42.65 GB ] Перл-Харбор / Pearl Harbor [2001 BDRemux 1080p] DUB + 2xMVO + 2xAVO sheker187 Скачать
2 | 0
Фильмы [HD 720p, 1080p] (Хороший звук DUB, MVO) [ 8.82 GB ] Перл Харбор / Pearl Harbor [2001 военный история BDRip 1080p HEVC ()] Мичман37 Скачать
1 | 0
Фильмы 2001-2005 [ 2.21 GB ] Перл Харбор / Pearl Harbor [2001 военный BDRip 1080p] Andruuha Скачать
1 | 0
Фильмы (BDRip, HDrip-AVC) (48-60 fps) [ 3.95 GB ] Перл-Харбор / Pearl Harbor [2001 BDRip-AVC 60fps Experimental Dub] от R.G. HD-Films Tiberiumsun69 Скачать
15 | 1
Фильмы [HD 720p, 1080p] (Хороший звук DUB, MVO) [ 12.99 GB ] Перл-Харбор / Pearl Harbor [2001 BDRip 720p от _denis_100 / NNNB] DUB 2xMVO 2xAVO _denis_100 Скачать
1 | 0
National Geographic [ 1.26 GB ] Секунды до катастрофы: Перл-Харбор / Seconds from disaster: Pearl Harbor [2011 Документальный война история исследование HDTVRip 720p ] schultz Скачать
1 | 0

28-11-2019 20:33  

Отключить всю рекламу на сайте

    Дорогой пользователь! Огромная просьба, поблагодарите релизера, оцените раздачу и оставьте свои комментарий, если Вы скачали Перл Харбор через торрент бесплатно! Внесите свою лепту в развитие PiratBit!
    Комментировать посты могут только пользователи прошедшие не сложную регистрацию
    Показать сообщения:    

    Перл Харбор через торрент
    Скачать бесплатно Перл Харбор
    Перл Харбор скачать торрент
    Перл Харбор смотреть онлайн
    Cкачать фильм Перл Харбор бесплатно
    Перл Харбор скачать торрент в хорошем качестве
    Перл Харбор смотреть онлайн бесплатно в хорошем качестве


    Вы не можете начинать темы
    Вы не можете отвечать на сообщения
    Вы не можете редактировать свои сообщения
    Вы не можете удалять свои сообщения
    Вы не можете голосовать в опросах
    Вы не можете прикреплять файлы к сообщениям
    Вы можете скачивать файлы