1 сезон

1 сезон

iTunes

1

КиноПоиск HD

Кинопоиск HD

iTunes

13

1 сезон

RePack

30

Новинка

ВАЖНО

ИГРА 18+

pack

RePack

MK11
pack

Легкие деньги

RePack

jed

RePack

fifa19

RePack

RDR2

RePack

NEED FOR SPEED™ PAYBACK

4 сезон

9 сезон

Бесстыжие 9 сезон

Все сериалы

все сериалы на PB.wtf

RePack

FAR CRY 5
  
Magnet ссылка

LD50: Летальная доза / LD 50 Lethal Dose (Саймон Де Сельва) [2003 г., Ужасы, SATRip, MVO] pb.wtf

LD50: Летальная доза через торрент pb.wtf

Размер: 1.45 GB | Добавлен: 8 лет 6 мес. назад | Торрент скачан:36 раз
Скачать  

18-09-2012 20:50 LD50: Летальная доза Скачать торрент  


LD50: Летальная доза / LD 50 Lethal Dose
Год выпуска: 2003
Страна: Великобритания, Crossfire Productions, Four Horsemen Films, Isle of Man Film Commission, Isle of Man Film Ltd., Lethal Dose/Random Harvest Film Partnership No.
Жанр: Ужасы
Продолжительность: 01:34:07
Перевод: Профессиональный многоголосый

Режиссер: Саймон Де Сельва

В ролях: Кэтрин Таун, Мелани Браун, Том Харди, Росс МакКолл, Тоби Фишер, Лео Билл, Филип Уинчестер, Стивен Лорд, Таня Эмери, Алан Тэлбот, Энтони Заки, Пол Бразертон

Описание: Группа террористов-гринписовцев «Летальная доза», промышляющих налетами на использующих подопытных животных лаборатории, получает паническое послание из тюрьмы, где мотает срок их коллега Гэри. Похоже, ему светит расплатиться за выпущенных на волю зверюшек, самому став объектом некоего секретного и весьма неприятного эксперимента. Собратья по борьбе разрабатывают спасательную операцию и проникают в научный комплекс, куда поместили Гэри. Но вместо людей в белых халатах их встречает тишина и запустение. А потом начинают происходить настолько жуткие и необъяснимые события, что герои понимают: их заманили в западню, и кто-то явно не хочет, чтобы они выбрались оттуда живыми!..
Доп. информация:


Качество: SATRip
Формат: AVI
Видео кодек: XviD
Аудио кодек: AC3
Видео: 704x528 (1.33:1), 25 fps, XviD build 50 ~1999 kbps avg, 0.22 bit/pixel
Аудио#1: 48 kHz, AC3 Dolby Digital, 2/0 (L,R) ch, ~192 kbps


Video #0
ID : 0
Format : MPEG-4 Visual
Format profile : Advanced Simple@L5
Format settings, BVOP : 1
Format settings, QPel : No
Format settings, GMC : No warppoints
Format settings, Matrix : Default (H.263)
Codec ID : XVID
Codec ID/Hint : XviD
Duration : 1h 34mn
Bit rate : 2 000 Kbps
Width : 704 pixels
Height : 528 pixels
Display aspect ratio : 4:3
Frame rate : 25.000 fps
Color space : YUV
Chroma subsampling : 4:2:0
Bit depth : 8 bits
Scan type : Progressive
Compression mode : Lossy
Bits/(Pixel*Frame) : 0.215
Stream size : 1.31 GiB (91%)
Writing library : XviD 1.2.1 (UTC 2008-12-04)
Audio #1
ID : 1
Format : AC-3
Format/Info : Audio Coding 3
Mode extension : CM (complete main)
Format settings, Endianness : Big
Codec ID : 2000
Duration : 1h 34mn
Bit rate mode : Constant
Bit rate : 192 Kbps
Channel(s) : 2 channels
Channel positions : Front: L R
Sampling rate : 48.0 KHz
Bit depth : 16 bits
Compression mode : Lossy
Stream size : 129 MiB (9%)
Alignment : Split accross interleaves
Interleave, duration : 40 ms (1.00 video frame)
Interleave, preload duration : 500 ms

pb.wtf



Скачать LD50: Летальная доза через торрент http://4.firepic.org/4/images/2012-09/18/vthcz3mkg6j9.jpg Скачать фильм LD50: Летальная доза через торрент бесплантно в хорошем качестве Описание: Группа террористов-гринписовцев «Летальная доза», промышляющих налетами на использующих подопытных животных лаборатории, получает ... 5 10 1
Info! Золотая раздача, скачанное не засчитывается.
Торрент: Зарегистрирован [2012-09-18 20:50] · скачан: 36 раз
Статус: √ проверено
Размер: 1.45 GB
Как cкачать? Как скачать LD50: Летальная доза через торрент | UTorrent

28-11-2019 20:33  

Отключить всю рекламу на сайте

    Дорогой пользователь! Огромная просьба, поблагодарите релизера, оцените раздачу и оставьте свои комментарий, если Вы скачали LD50: Летальная доза через торрент бесплатно! Внесите свою лепту в развитие PiratBit!
    Комментировать посты могут только пользователи прошедшие не сложную регистрацию
    Показать сообщения:    

    LD50: Летальная доза через торрент
    Скачать бесплатно LD50: Летальная доза
    LD50: Летальная доза скачать торрент
    LD50: Летальная доза смотреть онлайн
    Cкачать фильм LD50: Летальная доза бесплатно
    LD50: Летальная доза скачать торрент в хорошем качестве
    LD50: Летальная доза смотреть онлайн бесплатно в хорошем качестве


    Вы не можете начинать темы
    Вы не можете отвечать на сообщения
    Вы не можете редактировать свои сообщения
    Вы не можете удалять свои сообщения
    Вы не можете голосовать в опросах
    Вы не можете прикреплять файлы к сообщениям
    Вы можете скачивать файлы