1 сезон

1 сезон

iTunes

1

КиноПоиск HD

Кинопоиск HD

iTunes

13

1 сезон

RePack

30

Ultimate

ВАЖНО

ИГРА 18+

pack

RePack

MK11
pack

Легкие деньги

RePack

jed

RePack

fifa19

RePack

RDR2

RePack

NEED FOR SPEED™ PAYBACK

4 сезон

9 сезон

Бесстыжие 9 сезон

Все сериалы

все сериалы на PB.wtf

RePack

FAR CRY 5
  
Magnet ссылка

Принцесса специй / Mistress of Spices (Пол Маеда Берджес) [2005 г., драма, мелодрама, DVDRip, MVO] pb.wtf

Принцесса специй через торрент pb.wtf

Размер: 1.46 GB | Добавлен: 8 лет 6 мес. назад | Торрент скачан:30 раз
Скачать  

19-09-2012 09:56 Принцесса специй Скачать торрент  


Принцесса специй / Mistress of Spices
Год выпуска: 2005
Страна: США, Великобритания
Жанр: драма, мелодрама
Продолжительность: 1:31:38
Перевод: Профессиональный (многоголосый, закадровый)

Режиссер: Пол Маеда Берджес

В ролях: Айшвария Рай, Дилан МакДермотт, Нитин Чандра Ганатра, Адевале Акиннуойе-Агбадже, Кэролайн Чикези, Анупам Кхер, Шахин Кхан, Нина Янг

Описание: Покупая ингредиенты для карри и кормас, клиенты уютного магазинчика специй на окраине Сан-Франциско приобретают нечто гораздо более ценное — помощь в исполнении заветных желаний. Индийская красавица Тило, хозяйка магазина, обладает магическим даром видеть прошлое и будущее людей и влиять на их судьбы, подбирая особые специи.
Чтобы сохранить магические способности, Тило изо дня в день соблюдает три строгих обета: никогда не покидать магазин, не прикасаться к другим людям и служить только травам, полностью отрекшись от личной жизни. Но однажды обаятельный архитектор попадает в аварию у самых дверей ее магазина. С этих пор жизнь волшебницы меняется навсегда. Не в силах противостоять зародившимся чувствам, она нарушает правила одно за другим, не подозревая, чем обернется ее своенравное непослушание…
Доп. информация:


Качество: DVDRip
Формат: AVI
Видео кодек: XviD
Аудио кодек: AC3
Видео: 688x400 (1.72:1), 25 fps, XviD build 65 ~1816 kbps avg, 0.26 bit/pixel
Аудио#1: 48 kHz, AC3 Dolby Digital, 3/2 (L,C,R,l,r) + LFE ch, ~448 kbps


Video #0
ID : 0
Format : MPEG-4 Visual
Format profile : Advanced Simple@L5
Format settings, BVOP : 1
Format settings, QPel : No
Format settings, GMC : No warppoints
Format settings, Matrix : Custom
Codec ID : XVID
Codec ID/Hint : XviD
Duration : 1h 31mn
Bit rate : 1 817 Kbps
Width : 688 pixels
Height : 400 pixels
Display aspect ratio : 1.720
Frame rate : 25.000 fps
Color space : YUV
Chroma subsampling : 4:2:0
Bit depth : 8 bits
Scan type : Progressive
Compression mode : Lossy
Bits/(Pixel*Frame) : 0.264
Stream size : 1.16 GiB (80%)
Writing library : XviD 65
Audio #1
ID : 1
Format : AC-3
Format/Info : Audio Coding 3
Mode extension : CM (complete main)
Format settings, Endianness : Big
Codec ID : 2000
Duration : 1h 31mn
Bit rate mode : Constant
Bit rate : 448 Kbps
Channel(s) : 6 channels
Channel positions : Front: L C R, Side: L R, LFE
Sampling rate : 48.0 KHz
Bit depth : 16 bits
Compression mode : Lossy
Stream size : 294 MiB (20%)
Alignment : Split accross interleaves
Interleave, duration : 40 ms (1.00 video frame)
Interleave, preload duration : 500 ms

pb.wtf



Скачать Принцесса специй через торрент http://2.firepic.org/2/images/2012-09/18/dtxrp0fx4zr0.png Скачать фильм Принцесса специй через торрент бесплантно в хорошем качестве Описание: Покупая ингредиенты для карри и кормас, клиенты уютного магазинчика специй на окраине Сан-Франциско приобретают нечто гораздо ... 9.5 10 2
Info! Золотая раздача, скачанное не засчитывается.
Торрент: Зарегистрирован [2012-09-19 09:56] · скачан: 30 раз
Статус: √ проверено
Размер: 1.46 GB
Как cкачать? Как скачать Принцесса специй через торрент | UTorrent

28-11-2019 20:33  

Отключить всю рекламу на сайте

    Дорогой пользователь! Огромная просьба, поблагодарите релизера, оцените раздачу и оставьте свои комментарий, если Вы скачали Принцесса специй через торрент бесплатно! Внесите свою лепту в развитие PiratBit!
    Комментировать посты могут только пользователи прошедшие не сложную регистрацию
    Показать сообщения:    

    Принцесса специй через торрент
    Скачать бесплатно Принцесса специй
    Принцесса специй скачать торрент
    Принцесса специй смотреть онлайн
    Cкачать фильм Принцесса специй бесплатно
    Принцесса специй скачать торрент в хорошем качестве
    Принцесса специй смотреть онлайн бесплатно в хорошем качестве


    Вы не можете начинать темы
    Вы не можете отвечать на сообщения
    Вы не можете редактировать свои сообщения
    Вы не можете удалять свои сообщения
    Вы не можете голосовать в опросах
    Вы не можете прикреплять файлы к сообщениям
    Вы можете скачивать файлы