Ссылка на приватное зеркало нашего сайта всего за 1$. Внимание количество ограничено!!!

2 сезон

iTunes

1 сезон

1

2 сезон

2 сезон

iTunes

1 сезон

RePack

30

Новинка

ВАЖНО

ИГРА 18+

pack

RePack

MK11
pack

Забери бонус

RePack

jed

!!Акция!!

Alien_Rage

RePack

fifa19

RePack

Assassins Creed: Odyssey

RePack

NEED FOR SPEED™ PAYBACK

4 сезон

9 сезон

Бесстыжие 9 сезон

Все сериалы

все сериалы на PB.wtf

RePack

FAR CRY 5
  

Бункер / Der Untergang (Оливер Хиршбигель) [2004 г., драма, военный, биография, история, HDRip, MVO, лицензия] pb.wtf

Бункер через торрент pb.wtf

Размер: 2.19 GB | Добавлен: 8 лет 2 мес. назад | Торрент скачан:164 раза
Скачать  

19-09-2012 19:16 Бункер Скачать торрент  

Бункер / Der Untergang

Год выпуска: 2004
Страна: Германия
Жанр: драма, военный, биография, история
Продолжительность: 156 мин. / 02:36
Перевод: Профессиональный многоголосый, Лицензия

Режиссер: Оливер Хиршбигель
Продюссер: Вольф-Дитрих Брюкер, Бернд Айхингер, Дорис Дж. Хайнце
Сценарий: Бернд Айхингер, Иоахим Фест, Траудль Юнге

Бюджет: €13 500 000
Премьера в мире: 8 сентября 2004

лицам до 17 лет обязательно присутствие взрослого
Мировой рейтинг IMDB 8.30 (133 038)


В ролях: Бруно Ганц, Александра Мария Лара, Коринна Харфух, Ульрих Маттес, Юлиане Кёлер, Хайно Ферх, Кристиан Беркель, Маттиас Хабих, Томас Кречманн, Михаэль Мендль

Описание: Апрель 1945 года. Советские войска сжимают кольцо вокруг столицы Третьего рейха — Берлина. Перед лицом неминуемого поражения нацистская верхушка ищет спасение в секретном бункере, не желая покидать обезумевшего фюрера. Отвергнув предложения о побеге, Гитлер утверждает, что победа близка. Он приказывает сравнять Германию с землей и обсуждает детали своего самоубийства. Последнее убежище палачей пронизано агонией и страхом. И лишь те, кто выйдут живыми из этого бетонного ада, смогут поведать историю о последних минутах жизни и мрачном падении диктатора и его режима.

Качество: HDRip
Формат: AVI
Видео кодек: XviD
Аудио кодек: AC3
Видео: 720x400 (1.80:1), 23.976 fps, XviD MPEG-4 ~1628 kbps avg, 0.23 bit/pixel
Аудио#1: 48 kHz, AC3 Dolby Digital, 3/2 (L,C,R,l,r) + LFE ch, ~384 kbps









General
Complete name : J:\Bunker.2004.XviD.HDRip.avi
Format : AVI
Format/Info : Audio Video Interleave
Format profile : OpenDML
File size : 2.19 GiB
Duration : 2h 35mn
Overall bit rate : 2 019 Kbps
Writing application: VirtualDubMod 1.5.4.1 (build 2178/release)
Writing library: VirtualDubMod build 2178/release

Video
ID: 0
Format: MPEG-4 Visual
Format profile: Advanced Simple@L5
Format settings, BVOP: 1
Format settings, QPel: No
Format settings, GMC: No warppoints
Format settings, Matrix: Custom
Codec ID: XVID
Codec ID/Hint: XviD
Duration: 2h 35mn
Bit rate: 1 626 Kbps
Width: 720 pixels
Height: 400 pixels
Display aspect ratio: 16:9
Frame rate: 23.976 fps
Color space: YUV
Chroma subsampling: 4:2:0
Bit depth: 8 bits
Scan type: Progressive
Compression mode: Lossy
Bits/(Pixel*Frame): 0.236
Stream size: 1.76 GiB (81%)
Writing library: XviD 64

Audio
ID: 1
Format : AC-3
Format/Info : Audio Coding 3
Mode extension : CM (complete main)
Codec ID : 2000
Duration : 2h 35mn
Bit rate mode : Constant
Bit rate : 384 Kbps
Channel(s) : 6 channels
Channel positions : Front: L C R, Side: L R, LFE
Sampling rate : 48.0 KHz
Bit depth : 16 bits
Compression mode : Lossy
Stream size : 426 MiB (19%)
Alignment : Split accross interleaves
Interleave, duration: 96 ms (2.30 video frames)
Interleave, preload duration: 96 ms

pb.wtf



Скачать Бункер через торрент http://pic.kartinco.top/images/1/py26by9p2h.jpg Скачать фильм Бункер через торрент бесплантно в хорошем качестве Описание: Апрель 1945 года. Советские войска сжимают кольцо вокруг столицы Третьего рейха — Берлина. Перед лицом неминуемого поражения ... 10 10 5
Info! Золотая раздача, скачанное не засчитывается.
Торрент: Зарегистрирован [2012-09-19 19:16] · скачан: 164 раз
Статус: √ проверено
Размер: 2.19 GB
Как cкачать? Как скачать Бункер через торрент | qTorrent

% Раздел Тема Автор DL S | L
Фильмы [HD 720p, 1080p] (Хороший звук DUB, MVO) [ 13.89 GB ] Бункер / Der Untergang [2004 военный биография история BDRip ]MVO + original de VintMosina Скачать
1 | 0
T Релизы по Парсеру [Игры, Сериалы и Фильмы и другое...] [ 913 MB ] Бункер / Der Untergang / Downfall [2004 военный биография история HDRip] DVO sanekbest1 Скачать
1 | 0
Фильмы [HD 720p, 1080p] (Хороший звук DUB, MVO) [ 11.36 GB ] Бункер / Der Untergang [2004 военный биография история ... BDRip ] Simons cat Скачать
1 | 0

28-11-2019 20:33  

Отключить всю рекламу на сайте

19-09-2012 21:10 Бункер Скачать торрент  

давненько смотрел,офигенный фильмpb.wtf



19-09-2012 21:17 Бункер Скачать торрент  

И почему нет раздачи?pb.wtf



20-09-2012 17:20 Бункер Скачать торрент  

сори, технические проблемы, завтра с утра будетpb.wtf



15-11-2014 18:45 Бункер Скачать торрент  

После просмотра долго ходил под впечатлением.
Немцы сняли очень хороший фильм о своем прошлом и без ретуширования каким страдают американцы. У тех во всех фильмах о войнах, в которых участвовала страна, сквозит тема мести за зверства то вьетнамцев, то иракцев и т.д. и т.п., а в этом фильме русские ни чего такого не делают с немцами, хотя кому-кому а уж нашим было за что мстить…
Рекомендовал бы этот фильм к просмотру всем тем политиканам, которые расшатывают наш с вами шарик, не желая видеть последствия, подталкивая мир к окончательной войне за ресурсы или чего у них там на уме.pb.wtf



    Дорогой пользователь! Огромная просьба, поблагодарите релизера, оцените раздачу и оставьте свои комментарий, если Вы скачали Бункер через торрент бесплатно! Внесите свою лепту в развитие PiratBit!
    Комментировать посты могут только пользователи прошедшие не сложную регистрацию
    Показать сообщения:    

    Бункер через торрент
    Скачать бесплатно Бункер
    Бункер скачать торрент
    Бункер смотреть онлайн
    Cкачать фильм Бункер бесплатно
    Бункер скачать торрент в хорошем качестве
    Бункер смотреть онлайн бесплатно в хорошем качестве


    Вы не можете начинать темы
    Вы не можете отвечать на сообщения
    Вы не можете редактировать свои сообщения
    Вы не можете удалять свои сообщения
    Вы не можете голосовать в опросах
    Вы не можете прикреплять файлы к сообщениям
    Вы можете скачивать файлы