Ссылка на приватное зеркало нашего сайта всего за 1$. Внимание количество ограничено!!!

2 сезон

iTunes

1 сезон

1

iTunes

iTunes

iTunes

1 сезон

RePack

30

ИГРА 18+

pack

ВАЖНО

!!Акция!!

Alien_RageХит недели

RePack

MK11
pack

Забери бонус

RePack

jed

!!Акция!!

Alien_Rage

RePack

fifa19

RePack

Assassins Creed: Odyssey

RePack

NEED FOR SPEED™ PAYBACK

4 сезон

9 сезон

Бесстыжие 9 сезон

Все сериалы

все сериалы на PB.wtf

RePack

FAR CRY 5
  

Ворон / The Raven (Джеймс МакТиг / James McTeigue) [2012 г., триллер, детектив, BDRip 720p, DUB + Оригинал+Укр] pb.wtf

Ворон через торрент pb.wtf

Размер: 6.22 GB | Добавлен: 8 лет 1 мес. назад | Торрент скачан:100 раз
Скачать  

20-09-2012 04:19 Ворон Скачать торрент  

Ворон / The RavenГод выпуска: 2012
Страна: США, Венгрия, Испания
Жанр: триллер, детектив
Продолжительность: 01:50:52
Перевод: Дубляж + Оригинал+Укр

Режиссер: Джеймс МакТиг / James McTeigue

В ролях: Джон Кьюсак / John Cusack (Edgar Allan Poe), Элис Ив / Alice Eve (Emily Hamilton), Люк Эванс / Luke Evans (Detective Fields), Брендан Глисон / Brendan Gleeson (Captain Hamilton), Кевин МакНэлли / Kevin McNally (Maddux), Оливер Джексон-Коэн / Oliver Jackson-Cohen (John Cantrell), Джимми Юилл / Jimmy Yuill (Captain Eldridge), Сэм Хэзелдайн / Sam Hazeldine (Ivan), Пэм Феррис / Pam Ferris (Mrs. Bradley), Брендан Койл / Brendan Coyle (Reagan), Эдриан Роулинз / Adrian Rawlins (Doc Clements), Эйдан Фиори / Aidan Feore

Описание: Рассказ о последних днях жизни Эдгара Аллана По. Знаменитый поэт преследует серийного убийцу, чьи преступления очень похожи на те, что описаны в его произведениях.

Субтитры: Русские, Английские
Качество: BDRip 720p
Формат: MKV
Видео кодек: MPEG-4 AVC/H.264
Аудио кодек: AC3
Видео: AVC, 1280x534 (2.35:1), 23.976 fps, 6 468 Kbps
Аудио#1: AC-3, 48.0 KHz, 6 ch, 384 Kbps, CBR (Russian) - Дублированный
Аудио#2: AC-3, 48.0 KHz, 6 ch, 384 Kbps, CBR (Ukrainian)
Аудио#3: AC-3, 48.0 KHz, 6 ch, 640 Kbps, CBR (English)


General
Unique ID : 172211821877536225617063531217130574407 (0x818ECA5B231D4EBEA32C11A267DB5247)
Complete name : D:\Merged Volume\Voron.2012.TRIPLE.BDRip.720p.x264.AC3.-HQ-ViDEO.mkv
Format : Matroska
Format version : Version 2
File size : 6.22 GiB
Duration : 1h 50mn
Overall bit rate : 8 036 Kbps
Movie name : The Raven (2012) BDRip [720p] / Release by HQ-ViDEO
Encoded date : UTC 2012-09-18 19:32:01
Writing application : mkvmerge v5.6.0 ('Kenya Kane') built on May 27 2012 16:44:04
Writing library : libebml v1.2.3 + libmatroska v1.3.0

Video
ID : 1
Format : AVC
Format/Info : Advanced Video Codec
Format profile : High@L4.1
Format settings, CABAC : Yes
Format settings, ReFrames : 12 frames
Codec ID : V_MPEG4/ISO/AVC
Duration : 1h 50mn
Bit rate : 6 468 Kbps
Width : 1 280 pixels
Height : 534 pixels
Display aspect ratio : 2.40:1
Frame rate mode : Constant
Frame rate : 23.976 fps
Color space : YUV
Chroma subsampling : 4:2:0
Bit depth : 8 bits
Scan type : Progressive
Bits/(Pixel*Frame) : 0.395
Stream size : 5.01 GiB (80%)
Title : Encode by EbP
Writing library : x264 core 125 r2200 999b753
Encoding settings : cabac=1 / ref=12 / deblock=1:-3:-3 / analyse=0x3:0x113 / me=tesa / subme=11 / psy=1 / psy_rd=1.15:0.00 / mixed_ref=1 / me_range=16 / chroma_me=1 / trellis=2 / 8x8dct=1 / cqm=0 / deadzone=21,11 / fast_pskip=0 / chroma_qp_offset=-2 / threads=12 / lookahead_threads=2 / sliced_threads=0 / nr=0 / decimate=0 / interlaced=0 / bluray_compat=0 / constrained_intra=0 / bframes=7 / b_pyramid=2 / b_adapt=2 / b_bias=0 / direct=3 / weightb=1 / open_gop=0 / weightp=2 / keyint=250 / keyint_min=23 / scenecut=40 / intra_refresh=0 / rc=crf / mbtree=0 / crf=15.0 / qcomp=0.60 / qpmin=0 / qpmax=69 / qpstep=4 / ip_ratio=1.40 / pb_ratio=1.30 / aq=1:0.65
Language : English
Default : Yes
Forced : No

Audio #1
ID : 2
Format : AC-3
Format/Info : Audio Coding 3
Mode extension : CM (complete main)
Format settings, Endianness : Big
Codec ID : A_AC3
Duration : 1h 50mn
Bit rate mode : Constant
Bit rate : 384 Kbps
Channel(s) : 6 channels
Channel positions : Front: L C R, Side: L R, LFE
Sampling rate : 48.0 KHz
Bit depth : 16 bits
Compression mode : Lossy
Stream size : 305 MiB (5%)
Title : DUB
Language : Russian
Default : Yes
Forced : No

Audio #2
ID : 3
Format : AC-3
Format/Info : Audio Coding 3
Mode extension : CM (complete main)
Format settings, Endianness : Big
Codec ID : A_AC3
Duration : 1h 50mn
Bit rate mode : Constant
Bit rate : 384 Kbps
Channel(s) : 6 channels
Channel positions : Front: L C R, Side: L R, LFE
Sampling rate : 48.0 KHz
Bit depth : 16 bits
Compression mode : Lossy
Stream size : 305 MiB (5%)
Title : MVO
Language : Ukrainian
Default : No
Forced : No

Audio #3
ID : 4
Format : AC-3
Format/Info : Audio Coding 3
Mode extension : CM (complete main)
Format settings, Endianness : Big
Codec ID : A_AC3
Duration : 1h 50mn
Bit rate mode : Constant
Bit rate : 640 Kbps
Channel(s) : 6 channels
Channel positions : Front: L C R, Side: L R, LFE
Sampling rate : 48.0 KHz
Bit depth : 16 bits
Compression mode : Lossy
Stream size : 508 MiB (8%)
Language : English
Default : No
Forced : No

Text #1
ID : 5
Format : UTF-8
Codec ID : S_TEXT/UTF8
Codec ID/Info : UTF-8 Plain Text
Language : Russian
Default : No
Forced : No

Text #2
ID : 6
Format : UTF-8
Codec ID : S_TEXT/UTF8
Codec ID/Info : UTF-8 Plain Text
Language : English
Default : No
Forced : No

pb.wtf



Скачать Ворон через торрент http://i25.fastpic.ru/big/2012/0603/73/f1555f9450f23012cb665c0fddfa3473.png Скачать фильм Ворон через торрент бесплантно в хорошем качестве Описание: Рассказ о последних днях жизни Эдгара Аллана По. Знаменитый поэт преследует серийного убийцу, чьи преступления очень похожи на ... 5 10 1
Info! Золотая раздача, скачанное не засчитывается.
Торрент: Зарегистрирован [2012-09-20 04:19] · скачан: 100 раз
Статус: √ проверено
Размер: 6.22 GB
Как cкачать? Как скачать Ворон через торрент | qTorrent

% Раздел Тема Автор DL S | L
Фильмы [HD 720p, 1080p] (Хороший звук DUB, MVO) [ 5.39 GB ] Ворон / The Raven [2012 BDRip 720p] [Rus Transfer] Dub + 2xAVO - KORSAR kisa1980 Скачать
1 | 0
Фильмы [HD 720p, 1080p] (Хороший звук DUB, MVO) [ 8.93 GB ] Ворон / The Raven [2012 BDRip 1080p] [Rus Transfer] Dub + 2xAVO - KORSAR kisa1980 Скачать
1 | 0
Фильмы [HD 720p, 1080p] (Хороший звук DUB, MVO) [ 4.54 GB ] Ворон / The Raven [2012 BDRip 720p by msltel] DUB AVO msltel Скачать
1 | 0
Фильмы [HD 720p, 1080p] (Хороший звук DUB, MVO) [ 12.93 GB ] Ворон / The Raven [2012 BDRip 1080p by msltel] DUB AVO msltel Скачать
1 | 0
Фильмы (Blu-ray, BD-Remux, HDDVD) [ 38.51 GB ] Ворон / The Raven [2011 Blu-ray 1080p] - [] sheker187 Скачать
1 | 0
Фильмы (Blu-ray, BD-Remux, HDDVD) [ 26.39 GB ] Ворон / The Raven [2012 BDRemux DUB + Оригинал + Укр] AlexKa Скачать
1 | 0
Фильмы 2012 [ 1.37 GB ] Ворон / The Raven [2012 HDRip] DUB |лицензия| Mr. Freeman Скачать
1 | 0

28-11-2019 20:33  

Отключить всю рекламу на сайте

    Дорогой пользователь! Огромная просьба, поблагодарите релизера, оцените раздачу и оставьте свои комментарий, если Вы скачали Ворон через торрент бесплатно! Внесите свою лепту в развитие PiratBit!
    Комментировать посты могут только пользователи прошедшие не сложную регистрацию
    Показать сообщения:    

    Ворон через торрент
    Скачать бесплатно Ворон
    Ворон скачать торрент
    Ворон смотреть онлайн
    Cкачать фильм Ворон бесплатно
    Ворон скачать торрент в хорошем качестве
    Ворон смотреть онлайн бесплатно в хорошем качестве


    Вы не можете начинать темы
    Вы не можете отвечать на сообщения
    Вы не можете редактировать свои сообщения
    Вы не можете удалять свои сообщения
    Вы не можете голосовать в опросах
    Вы не можете прикреплять файлы к сообщениям
    Вы можете скачивать файлы